Home 2015 3D 1080p Bluray x264 Half-SBS iFT DUAL


Size : 8.68 GiB (9315442557 Bytes)

An alien race invades Earth to hide from his greatest extraterrestrial enemies. They live in secret, but the young alien J.Lo (voice of Jim Parsons) today faced with one of these evil enemies, forcing him to flee to the side of the Tip teenager (Rihanna). The two eventually develop a close and strange friendship.

Original Title: Home
Title in Brazil: Each One in His House
Director: Tim Johnson
Genre: Comedy / Animation
Duration: 94 minutes
Release Date: 2015
IMDb: http://www.imdb.com/title/tt1567437/

Size: 8.68 GB
Extension Archive: .MKV
Video Quality: Blu-Ray - 3D
Video codec: H.264 / AVC - HSBS 3D
Audio codec: AC3 5.1
Resolution: 1920 x 1080
Audio: Portuguese / English
Subtitles: Portuguese

Video
ID


















: 1
Format
















: AVC
Format/Info














: Advanced Video Codec
Format profile












: [email protected]/* */
Format settings, CABAC








: Yes
Format settings, ReFrames







: 2 frames
Muxing mode














: Header stripping
Codec ID















: V_MPEG4/ISO/AVC
Duration















: 1h 33mn
Bit rate















: 12.1 Mbps
Width

















: 1 920 pixels
Height
















: 1 080 pixels
Display aspect ratio









: 16:9
Frame rate














: 23.976 fps
Color space














: YUV
Chroma subsampling










: 4:2:0
Bit depth















: 8 bits
Scan type















: Progressive
Bits/(Pixel*Frame)










: 0.243
Stream size














: 7.90 GiB (91%)
Title

















: DUAL-LAPUMiA
Writing library












: x264 core
Default
















: Yes
Forced
















: No
Color primaries












: BT.709-5, BT.1361, IEC 61966-2-4, SMPTE RP177
Transfer characteristics







: BT.709-5, BT.1361
Matrix coefficients










: BT.709-5, BT.1361, IEC 61966-2-4 709, SMPTE RP177

Audio #1
ID


















: 2
Format
















: AC-3
Format/Info














: Audio Coding 3
Mode extension












: CM (complete main)
Format settings, Endianness






: Big
Muxing mode














: Header stripping
Codec ID















: A_AC3
Duration















: 1h 33mn
Bit rate mode













: Constant
Bit rate















: 448 Kbps
Channel(s)














: 6 channels
Channel positions











: Front: L C R, Side: L R, LFE
Sampling rate













: 48.0 KHz
Bit depth















: 16 bits
Compression mode











: Lossy
Stream size














: 301 MiB (3%)
Title

















: PT-BR AC3 5.1 LAPUMiA
Language















: Portuguese
Default
















: Yes
Forced
















: No

Audio #2
ID


















: 3
Format
















: AC-3
Format/Info














: Audio Coding 3
Mode extension












: CM (complete main)
Format settings, Endianness






: Big
Muxing mode














: Header stripping
Codec ID















: A_AC3
Duration















: 1h 33mn
Bit rate mode













: Constant
Bit rate















: 448 Kbps
Channel(s)














: 6 channels
Channel positions











: Front: L C R, Side: L R, LFE
Sampling rate













: 48.0 KHz
Bit depth















: 16 bits
Compression mode











: Lossy
Stream size














: 301 MiB (3%)
Title

















: ENG AC3 5.1
Default
















: No
Forced
















: No