Ichchemotir.Gappo.(2016) – WebHD.Rip – 720p – x264.AC3 – DDR


Size : 3.49 GiB (3751788548 Bytes)


A DDR Exclusive


Icchemotir.Gappo -(2015)
(A film by Adinath Das)

Bangla - WebHD.Rip - 720p - 1280x704 (16:9)- 3.50 GB- x.264.AC3 - 5.1 Ch - 1 Hrs:57 Min
http://extraimage.net/image/wogU http://extraimage.net/image/wogM http://extraimage.net/image/wog9 http://extraimage.net/image/wog3 http://extraimage.net/image/wogb http://extraimage.net/image/wogh http://extraimage.net/image/wogd http://extraimage.net/image/wogI http://extraimage.net/image/wogl http://extraimage.net/image/wogi


Tech Specifications:

General
Format: Matroska
Format version: Version 4 / Version 2
File size: 3.49 GiB
Duration: 1 h 57 min
Overall bit rate mode: Variable
Overall bit rate: 4255 kb/s

Video
Format: AVC
Codec ID: V_MPEG4/ISO/AVC
Format Profile: [email protected]/* */
Duration: 1 h 57 min
Bit rate mode: Variable
Bit rate: 3810 kb/s
Maximum bit rate: 62.5 Mb/s
Width: 1280 pixels
Height: 714 pixels
Display aspect ratio: 2.35:1
Frame rate mode: Constant
Frame rate: 23.976 FPS
Color space: YUV
Chroma subsampling: 4:2:0
Bit depth: 8 bits
Scan type: Progressive
Bits/(Pixel*Frame): 0.176
Stream size: 3.12 GiB (91%)
Writing library: x264 core 148 r2721 72d53ab
Color Primaries: BT.709

Audio
Format: AC3
Duration: 1 h 57 min
Bit rate: 448 kb/s
Channel(s): 6 channels
Channel positions: Front: Front: L C R, Side: L R, LFE
Sampling rate: 48.0 kHz
Frame rate: 31.250 FPS (1536 spf)
Compression mode: Lossy
Delay relative to video: 31 ms
Stream size: 377 MiB (6%)
Default: Yes
Forced : No

Chapters & Subtitles
Chapters: None
Subtitles: None

IMDB Link: http://www.imdb.com/title/tt4489078/