Indep.Day.Resurgence.1080p-Dts-(US).mkv


Size : 8.63 GiB (9261875878 Bytes)

Indep.Day.Resurgence.1080p-Dts-(US).mkv

See imdb right here : http://www.imdb.com/title/tt1628841/

Copy by Master dubbing

h263.mkv/simple pass @ 1080p @ full screen resolution (1920 x 804)

Language : US only and Sub = US, FR

Considerate it as a sort of preview.

Acceptable quality as Normal but a bit grainy as well anyway.

Final size : 8,62 GB

General

Complete name








: Indep.Day.Resurgence.1080p-Dts-(US).mkv
Format











: Matroska
Format version







: Version 4 / Version 2
File size










: 8.63 GiB
Duration










: 1 h 59 min
Overall bit rate






: 10.3 Mb/s
Encoded date








: UTC 2016-10-07 05:53:12
Writing application





: Lavf57.51.102
Writing library







: Lavf57.51.102 / Lavf57.51.102

Video
ID













: 1
Format











: H.263
Codec ID










: V_MS/VFW/FOURCC / H263
Duration










: 1 h 59 min
Bit rate










: 8 599 kb/s
Width












: 1 920 pixels
Height











: 804 pixels
Display aspect ratio




: 2.40:1
Frame rate mode







: Constant
Frame rate









: 23.976 FPS
Bit depth










: 8 bits
Compression mode






: Lossy
Bits/(Pixel*Frame)





: 0.232
Stream size









: 7.19 GiB (83%)
Writing library







: Lavc57.60.101 h263p
Language










: English
Default











: Yes
Forced











: No
DURATION










: 01:59:44.189000000

Audio
ID













: 2
Format











: DTS
Format/Info









: Digital Theater Systems
Format profile







: ES Matrix / Core
Mode












: 16
Format settings, Endianness

: Big
Codec ID










: A_DTS
Duration










: 1 h 59 min
Bit rate mode








: Constant
Bit rate










: 1 509 kb/s
Channel(s)









: 7 channels / 6 channels
Channel positions






: Front: L C R, Side: L R, Back: C, LFE / Front: L C R, Side: L R, LFE
Sampling rate








: 48.0 kHz
Frame rate









: 93.750 FPS (512 spf)
Bit depth










: 24 bits
Compression mode






: Lossy
Stream size









: 1.26 GiB (15%)
Language










: English
Default











: Yes
Forced











: No
DURATION










: 01:59:44.181000000

Seed, please and enjoy.
Ty and best regards