INNA – Cola Song ft J Balvin 720p x264 AAC [GWC].mp4


Size : 54.64 MiB (57293937 Bytes)

INNA - Cola Song ft J Balvin 720p x264 AAC [GWC]


COVER : http://i.imgur.com/Aw0DQew.jpg


THUMBNAIL IMAGE : http://img829.imageshack.us/img829/9156/c9rf.jpg


MEDIA INFO :
General
Format : MPEG-4
Format profile : Base Media
File size : 54.6 MiB
Duration : 3mn 20s
Overall bit rate mode : Variable
Overall bit rate : 2 288 Kbps

Video
Format : AVC
Format profile : [email protected]/* */
Format settings, CABAC : Yes
Duration : 3mn 20s
Bit rate : 2 202 Kbps
Maximum bit rate : 5 072 Kbps
Width : 1 280 pixels
Height : 720 pixels
Frame rate mode : Constant
Frame rate : 23.976 fps
Stream size : 52.6 MiB (96%)
Title : INNA - Cola Song ft J Balvin 720p x264 AAC [GWC]

Audio
Format : AAC
Format profile : LC
Duration : 3mn 20s
Bit rate mode : Variable
Channel(s) : 2 channels
Sampling rate : 48.0 KHz
Stream size : 2.01 MiB (4%)
Language : English