Ishq Vishk (2003) WebHDRip 1080p x264 AAC [ TaRa ]

Magnet Download Torrent Download

Size : 1.82 GiB (1954353893 Bytes)

===================================================================
General
Complete name






: Ishq Vishk (2003) WebHDRip 1080p x264 AAC [ TaRa ].mkv
Format










: Matroska
Format version






: Version 4 / Version 2
File size








: 1.81 GiB
Duration









: 2 h 9 min
Overall bit rate mode


: Variable
Overall bit rate





: 1 999 kb/s
===================================================================
Video
ID












: 1
Format










: AVC
Format/Info







: Advanced Video Codec
Format profile






: [email protected]/* */
Format settings, CABAC


: Yes
Format settings, ReFrames
: 3 frames
Codec ID









: V_MPEG4/ISO/AVC
Duration









: 2 h 9 min
Bit rate mode






: Variable
Bit rate









: 1 902 kb/s
Maximum bit rate





: 40.0 Mb/s
Width










: 1 920 pixels
Height










: 816 pixels
Display aspect ratio



: 2.35:1
Frame rate mode





: Constant
Frame rate








: 25.000 FPS
Color space







: YUV
Chroma subsampling




: 4:2:0
Bit depth








: 8 bits
Scan type








: Progressive
Bits/(Pixel*Frame)




: 0.049
Stream size







: 1.72 GiB (95%)
Title










: Hindi .....::::: TaRa :::::....
Language









: Hindi
Default









: Yes
Forced










: No
===================================================================
Audio
ID












: 2
Format










: AAC
Format/Info







: Advanced Audio Codec
Format profile






: LC
Codec ID









: A_AAC
Duration









: 2 h 9 min
Bit rate









: 96.0 kb/s
Channel(s)








: 2 channels
Channel positions




: Front: L R
Sampling rate






: 48.0 kHz
Frame rate








: 46.875 FPS (1024 spf)
Compression mode





: Lossy
Delay relative to video

: 9 ms
Stream size







: 88.5 MiB (5%)
Title










: Hindi
.....::::: TaRa :::::....
Language









: Hindi
Default









: Yes
Forced










: No
=================================================================== http://extraimage.net/image/wuJ2 http://extraimage.net/image/wuJN http://extraimage.net/image/wuJT http://extraimage.net/image/wuJj http://extraimage.net/image/wuJn http://extraimage.net/image/wuJs http://extraimage.net/image/wuJ7 http://extraimage.net/image/wuJc http://extraimage.net/image/wuJ1 http://extraimage.net/image/wuJE http://extraimage.net/image/wuJO http://extraimage.net/image/wuJS http://extraimage.net/image/wuJq http://extraimage.net/image/wuJy