J. Balvin – Ginza (2015.Latin)


Size : 81.83 MiB (85804527 Bytes)

J. BALVIN - GINZA

http://gifyu.com/images/ginza.png
https://thepiratebay.vg/user/MeRaDil


MEDIA INFO
General
J. Balvin - Ginza
Format
















: MPEG-4
Format profile












: Base Media
Codec ID















: isom
File size















: 81.8 MiB
Duration















: 3mn 48s
Overall bit rate











: 2 998 Kbps
MusicVid name













: Ginza
Performer















: J.Balvin
Genre

















: Reggaeton
ContentType














: Music Video
Recorded date













: 2015
Rating
















: ***
Make

















: MeRaDil
Release time













: Columbia - july 21 - 2015

Video
ID


















: 1
Format
















: AVC
Format/Info














: Advanced Video Codec
Format profile












: [email protected]/* */
Format settings, CABAC








: Yes
Format settings, ReFrames







: 3 frames
Codec ID















: avc1
Codec ID/Info













: Advanced Video Coding
Duration















: 3mn 48s
Bit rate















: 2 730 Kbps
Width

















: 1 920 pixels
Height
















: 1 080 pixels
Display aspect ratio









: 16:9
Frame rate mode












: Constant
Frame rate














: 24.000 fps
Color space














: YUV
Chroma subsampling










: 4:2:0
Bit depth















: 8 bits
Scan type















: Progressive
Bits/(Pixel*Frame)










: 0.055
Stream size














: 74.5 MiB (91%)

Audio
ID


















: 2
Format
















: AAC
Format/Info














: Advanced Audio Codec
Format profile












: LC
Codec ID















: 40
Duration















: 3mn 48s
Bit rate mode













: Constant
Bit rate















: 256 Kbps
Channel(s)














: 2 channels
Channel positions











: Front: L R
Sampling rate













: 44.1 KHz
Compression mode











: Lossy
Stream size














: 6.99 MiB (9%)

J.Balvin * Latin/Reggaeton * Promo