Jab Pyaar Kisise Hota Hai (1998) HDRip 1080p x264 AAC { TaRa }

Magnet Download Torrent Download

Size : 1.26 GiB (1358230716 Bytes)

===================================================================
General
Complete name






:Jab Pyaar Kisise Hota Hai (1998) HDRip 1080p x264 AAC { TaRa }.mkv
Format










: Matroska
Format version






: Version 4 / Version 2
File size








: 1.25 GiB
Duration









: 2 h 29 min
Overall bit rate mode


: Variable
Overall bit rate





: 1 200 kb/s
===================================================================
Video
ID












: 1
Format










: AVC
Format/Info







: Advanced Video Codec
Format profile






: [email protected]/* */
Format settings, CABAC


: Yes
Format settings, ReFrames
: 3 frames
Codec ID









: V_MPEG4/ISO/AVC
Duration









: 2 h 29 min
Bit rate mode






: Variable
Bit rate









: 1 102 kb/s
Maximum bit rate





: 14.0 Mb/s
Width










: 1 920 pixels
Height










: 816 pixels
Display aspect ratio



: 2.35:1
Frame rate mode





: Constant
Frame rate








: 23.976 (24000/1001) FPS
Color space







: YUV
Chroma subsampling




: 4:2:0
Bit depth








: 8 bits
Scan type








: Progressive
Bits/(Pixel*Frame)




: 0.029
Stream size







: 1.15 GiB (92%)
Title










: .....::::: TaRa :::::.....
Language









: Hindi
Default









: Yes
Forced










: No
===================================================================
Audio
ID












: 2
Format










: AAC
Format/Info







: Advanced Audio Codec
Format profile






: LC
Codec ID









: A_AAC
Duration









: 2 h 29 min
Bit rate









: 96.0 kb/s
Channel(s)








: 2 channels
Channel positions




: Front: L R
Sampling rate






: 48.0 kHz
Frame rate








: 46.875 FPS (1024 spf)
Compression mode





: Lossy
Delay relative to video

: 9 ms
Stream size







: 103 MiB (8%)
Title










: .....::::: TaRa :::::.....
Language









: Hindi
Default









: Yes
Forced










: No
=================================================================== http://extraimage.net/image/wfSX http://extraimage.net/image/wfSP http://extraimage.net/image/wfSG http://extraimage.net/image/wfSr http://extraimage.net/image/wfSp http://extraimage.net/image/wfSY http://extraimage.net/image/wfSC http://extraimage.net/image/wfSB http://extraimage.net/image/wfS4 http://extraimage.net/image/wfSe http://extraimage.net/image/wfSZ http://extraimage.net/image/wfSK