Jack.O.Caçador.de.Gigantes.(2013).Dublado.1080p.3D – DEJA

Magnet Download Torrent Download

Size : 1.87 GiB (2004292949 Bytes)

Jack O Caçador de Gigantes (2013)
- 1080p 3D DUBLADO - PT-BR - DEJAVUBR

=======================================================
==== w w w . t h e p i r a t e f i l m e s . c o m ====
=======================================================

Jack (Nicholas Hoult) é um fazendeiro que adquire grãos de feijão com a única recomendação de que não devem ser molhados. Obviamente, isto acaba ocorrendo e criando um enorme pé de feijão que vai dar em um mundo de gigantes. Em meio a tudo isso, a princesa Isabelle (Eleanor Tomlinson) é sequestrada pelos gigantes e Jack se unirá ao Rei (Ian McShane) numa cruzada para a salvar a jovem.

Lançamento: 29 de março de 2013 (1h 54min)
Dirigido por: Bryan Singer
Com: Nicholas Hoult, Eleanor Tomlinson, Ewan McGregor mais
Gênero: Aventura , Fantasia
Nacionalidade: EUA
Formato: MP4
Qualidade: 1080p (Full HD) 3D(HSBS)
Idioma: PT-BR (Audio 5.1)
OBS: Filmes 3D só funcionam em TVs ou Monitores 3D

PARA MAIS FILMES VISITEM:
=======================================================
==== w w w . t h e p i r a t e f i l m e s . c o m ====
=======================================================

AO FIM DO DOWNLOAD FIQUE SEMEANDO/ENVIANDO, PARA QUE EU POSSA ENVIAR OUTROS FILMES COM QUALIDADE! Obrigado!




Video
ID


















: 1
Format
















: AVC
Format/Info














: Advanced Video Codec
Format profile












: [email protected]/* */
Format settings, CABAC








: Yes
Format settings, ReFrames







: 4 frames
Codec ID















: avc1
Codec ID/Info













: Advanced Video Coding
Duration















: 1h 54mn
Bit rate















: 2 208 Kbps
Maximum bit rate











: 17.5 Mbps
Width

















: 1 920 pixels
Height
















: 1 080 pixels
Display aspect ratio









: 16:9
Frame rate mode












: Constant
Frame rate














: 23.976 fps
Color space














: YUV
Chroma subsampling










: 4:2:0
Bit depth















: 8 bits
Scan type















: Progressive
Bits/(Pixel*Frame)










: 0.044
Stream size














: 1.76 GiB (94%)



Audio
ID


















: 2
Format
















: MPEG Audio
Format version












: Version 1
Format profile












: Layer 3
Mode

















: Joint stereo
Codec ID















: 6B
Duration















: 1h 54mn
Bit rate mode













: Constant
Bit rate















: 128 Kbps
Maximum bit rate











: 132 Kbps
Channel(s)














: 2 channels
Sampling rate













: 48.0 KHz
Compression mode











: Lossy
Stream size














: 105 MiB (5%)
Writing library












: LAME3.97b