Jane the Virgin Season 2 S02 ~{KiNg}

Magnet Download Torrent Download

Size : 8.35 GiB (8969035857 Bytes)

General
Format : Matroska
Format version : Version 4 / Version 2
File size : 389 MiB
Duration : 42mn 0s
Overall bit rate : 1 294 Kbps
Encoded date : UTC 2016-06-18 01:05:38

Video
ID : 1
Format : AVC
Format/Info : Advanced Video Codec
Format profile : [email protected]/* */
Format settings, CABAC : Yes
Format settings, ReFrames : 4 frames
Codec ID : V_MPEG4/ISO/AVC
Duration : 42mn 0s
Bit rate : 1 068 Kbps
Width : 1 280 pixels
Height : 720 pixels
Display aspect ratio : 16:9
Frame rate mode : Constant
Frame rate : 23.976 (24000/1001) fps
Color space : YUV
Chroma subsampling : 4:2:0
Bit depth : 8 bits
Scan type : Progressive
Bits/(Pixel*Frame) : 0.048
Stream size : 321 MiB (83%)
Writing library : x264 core 148 r2692 64f4e24

Audio
ID : 2
Format : AC-3
Format/Info : Audio Coding 3
Mode extension : CM (complete main)
Format settings, Endianness : Big
Codec ID : A_AC3
Duration : 42mn 0s
Bit rate mode : Constant
Bit rate : 224 Kbps
Channel(s) : 6 channels
Channel positions : Front: L C R, Side: L R, LFE
Sampling rate : 48.0 KHz
Frame rate : 31.250 fps (1536 spf)
Compression mode : Lossy
Stream size : 67.3 MiB (17%)
Language : English
Default : No
Forced : No

Text
ID : 3
Format : UTF-8
Codec ID : S_TEXT/UTF8
Codec ID/Info : UTF-8 Plain Text
Duration : 41mn 54s
Bit rate : 88 bps
Count of elements : 1004
Stream size : 27.1 KiB (0%)
Default : No
Forced : No