Jess Glynne – Don’t Be So Hard On Yourself (2015.House)


Size : 90.35 MiB (94743176 Bytes)

JESS GLYNNE - DON'T BE SO HARD ON YOURSELF


PROMO MPEG4 Music Vid
http://gifyu.com/images/JessGlynne-1.png
http://gifyu.com/images/JessGlynne-2.png

General
Jess Glynne - Don't Be So Hard On Yourself
Format
















: Promo MPEG-4
Format profile












: Base Media
Codec ID















: isom
File size















: 90.4 MiB
Duration















: 4mn 10s
Overall bit rate











: 3 024 Kbps
MusicVid name













: Don't Be So Hard On Yourself
Album

















: I Cry When I Laugh
Performer















: Jess Glynne
Genre

















: House
ContentType














: Music Video
Recorded date













: 2015
Copyright















: Jess Glynne
Cover

















: Yes
Rating
















: ***
Make

















: MeRaDil
Artist url














: http://www.jessglynne.co.uk
Release
















: UK . july 9 . 2015
Part_ID
















: Don't Be So Hard On Yourself

Video
ID


















: 1
Format
















: AVC
Format/Info














: Advanced Video Codec
Format profile












: [email protected]/* */
Format settings, CABAC








: Yes
Format settings, ReFrames







: 2 frames
Codec ID















: avc1
Codec ID/Info













: Advanced Video Coding
Duration















: 4mn 10s
Bit rate















: 2 761 Kbps
Width

















: 1 920 pixels
Height
















: 1 080 pixels
Display aspect ratio









: 16:9
Frame rate mode












: Constant
Frame rate














: 25.000 fps
Color space














: YUV
Chroma subsampling










: 4:2:0
Bit depth















: 8 bits
Scan type















: Progressive
Bits/(Pixel*Frame)










: 0.053
Stream size














: 82.5 MiB (91%)

Audio
ID


















: 2
Format
















: AAC
Format/Info














: Advanced Audio Codec
Format profile












: LC
Codec ID















: 40
Duration















: 4mn 10s
Bit rate mode













: Constant
Bit rate















: 256 Kbps
Channel(s)














: 2 channels
Channel positions











: Front: L R
Sampling rate













: 44.1 KHz
Compression mode











: Lossy
Stream size














: 7.65 MiB (8%)

Jess Glynne * I Cry When I Laugh * House * Promo
https://thepiratebay.se/user/MeRaDil