Jidenna Ft. Roman GianArthur – Classic Man [1080p]


Size : 100.18 MiB (105050056 Bytes)

General

Format











: MPEG-4
Format profile







: Base Media
Codec ID










: isom
File size










: 100 MiB
Duration










: 4mn 6s
Overall bit rate






: 3 404 Kbps
Writing application





: Lavf56.40.101

Video
ID













: 1
Format











: AVC
Format/Info









: Advanced Video Codec
Format profile







: [email protected]/* */
Format settings, CABAC



: Yes
Format settings, ReFrames


: 2 frames
Codec ID










: avc1
Codec ID/Info








: Advanced Video Coding
Duration










: 4mn 6s
Bit rate










: 3 144 Kbps
Width












: 1 920 pixels
Height











: 1 080 pixels
Display aspect ratio




: 16:9
Frame rate mode







: Variable
Frame rate









: 23.976 fps
Minimum frame rate





: 23.974 fps
Maximum frame rate





: 90 000.000 fps
Color space









: YUV
Chroma subsampling





: 4:2:0
Bit depth










: 8 bits
Scan type










: Progressive
Bits/(Pixel*Frame)





: 0.063
Stream size









: 92.5 MiB (92%)

Audio
ID













: 2
Format











: AAC
Format/Info









: Advanced Audio Codec
Format profile







: LC
Codec ID










: 40
Duration










: 4mn 6s
Bit rate mode








: Constant
Bit rate










: 254 Kbps
Channel(s)









: 2 channels
Channel positions






: Front: L R
Sampling rate








: 44.1 KHz
Compression mode






: Lossy
Stream size









: 7.46 MiB (7%)