Joe’s Apartment (1996) (PiZ).m4v


Size : 346.74 MiB (363586803 Bytes)

Source: I can't remember.

Encoded for PSP, iPod, and Zune

Enjoy and please help seed.

Movie Summary:

A nice guy has just moved to New York and discovers that he must share his run-down apartment with a couple thousand singing, dancing cockroaches.


Video specs:

Format












: MPEG-4
Codec ID











: M4V
File size











: 347 MiB
Duration











: 1h 16mn
Overall bit rate







: 633 Kbps
Movie name










: Joe's Apartment (1996)
Encoded date









: 2010
Writing application






: Lavf52.33.0

Video
ID














: 1
Format












: AVC
Format/Info










: Advanced Video Codec
Format profile








: [email protected]/* */
Format settings, CABAC




: No
Format settings, ReFrames



: 1 frame
Codec ID











: avc1
Codec ID/Info









: Advanced Video Coding
Duration











: 1h 16mn
Bit rate mode









: Variable
Bit rate











: 500 Kbps
Width













: 320 pixels
Height












: 240 pixels
Display aspect ratio





: 4:3
Frame rate mode








: Constant
Frame rate










: 29.970 fps
Color space










: YUV
Chroma subsampling






: 4:2:0
Bit depth











: 8 bits
Scan type











: Progressive
Bits/(Pixel*Frame)






: 0.217
Stream size










: 274 MiB (79%)

Audio
ID














: 2
Format












: AAC
Format/Info










: Advanced Audio Codec
Format version








: Version 4
Format profile








: LC
Format settings, SBR





: No
Codec ID











: 40
Duration











: 1h 16mn
Bit rate mode









: Variable
Bit rate











: 128 Kbps
Channel(s)










: 2 channels
Channel positions







: Front: L R
Sampling rate









: 48.0 KHz
Stream size










: 70.1 MiB (20%)