Jupiter.Ascending.2015.3D.1080p.BluRay.x264-SPRiNTER[rarbg]


Size : 8.74 GiB (9385191609 Bytes)

Video




X264 9170Kbps @ HSBS 3D
Audio




AC-3 640Kbps 6ch
Resolution


1920x800
Size





8950MB (9385186689 Bytes)
Frame Rate


23.976
Run Time



2h 7mn
Language



English
3D Subtitles


Video
ID


















: 1
Format
















: AVC
Format/Info














: Advanced Video Codec
Format profile












: [email protected]/* */
Format settings, CABAC








: Yes
Format settings, ReFrames







: 5 frames
Codec ID















: V_MPEG4/ISO/AVC
Duration















: 2h 7mn
Bit rate















: 9 170 Kbps
Width

















: 1 920 pixels
Height
















: 800 pixels
Display aspect ratio









: 2.40:1
Frame rate mode












: Constant
Frame rate














: 23.976 fps
Color space














: YUV
Chroma subsampling










: 4:2:0
Bit depth















: 8 bits
Scan type















: Progressive
Bits/(Pixel*Frame)










: 0.249
Stream size














: 8.00 GiB (91%)
Writing library












: x264 core 144 r2525 40bb568
Encoding settings











: cabac=1 / ref=5 / deblock=1:0:0 / analyse=0x3:0x133 / me=umh / subme=7 / psy=1 / psy_rd=1.00:0.00 / mixed_ref=1 / me_range=16 / chroma_me=1 / trellis=1 / 8x8dct=1 / cqm=0 / deadzone=21,11 / fast_pskip=0 / chroma_qp_offset=-2 / threads=48 / lookahead_threads=6 / sliced_threads=0 / nr=0 / decimate=1 / interlaced=0 / bluray_compat=0 / constrained_intra=0 / bframes=3 / b_pyramid=2 / b_adapt=1 / b_bias=0 / direct=1 / weightb=1 / open_gop=0 / weightp=2 / keyint=250 / keyint_min=23 / scenecut=40 / intra_refresh=0 / rc_lookahead=40 / rc=2pass / mbtree=1 / bitrate=9170 / ratetol=1.0 / qcomp=0.60 / qpmin=0 / qpmax=69 / qpstep=4 / cplxblur=20.0 / qblur=0.5 / ip_ratio=1.40 / aq=1:1.00
Language















: English
Default
















: Yes
Forced
















: No

Audio
ID


















: 2
Format
















: AC-3
Format/Info














: Audio Coding 3
Mode extension












: CM (complete main)
Format settings, Endianness






: Big
Codec ID















: A_AC3
Duration















: 2h 7mn
Bit rate mode













: Constant
Bit rate















: 640 Kbps
Channel(s)














: 6 channels
Channel positions











: Front: L C R, Side: L R, LFE
Sampling rate













: 48.0 KHz
Bit depth















: 16 bits
Compression mode











: Lossy
Stream size














: 584 MiB (7%)
Language















: English
Default
















: Yes
Forced
















: No

Menu
00:00:00.000













: en:00:00:00.000
00:08:45.024













: en:00:08:45.024
00:19:31.170













: en:00:19:31.170
00:31:32.974













: en:00:31:32.974
00:41:42.542













: en:00:41:42.542
00:49:35.639













: en:00:49:35.639
00:58:29.631













: en:00:58:29.631
01:09:20.031













: en:01:09:20.031
01:19:07.201













: en:01:19:07.201
01:29:09.427













: en:01:29:09.427
01:36:08.513













: en:01:36:08.513
01:43:26.575













: en:01:43:26.575
01:52:58.772













: en:01:52:58.772
01:57:59.489













: en:01:57:59.489