Katy Perry – Firework [720p][hd][chitra.dmj]


Size : 58.35 MiB (61186217 Bytes)

lyrics

Do you ever feel like a plastic bag
Drifting throught the wind
Wanting to start again

Do you ever feel, feel so paper thin
Like a house of cards
One blow from caving in

Do you ever feel already buried deep
Six feet under scream
But no one seems to hear a thing

Do you know that tehre's still a chance for you
Cause there's a spark in you

You just gotta ignite the light
And let it shine
Just own the night
Like the Fourth of July

Cause baby you're a firework
Come on show 'em what your worth
Make 'em go "Oh, oh, oh!"
As you shoot across the sky-y-y

Baby you're a firework
Come on let your colors burst
Make 'em go "Oh, oh, oh!"
You're gunna leave 'em fallin' down-own-own

You don't have to feel like a waste of space
You're original, cannot be replaced
If you only knew what the future holds
After a hurricane comes a rainbow

Maybe you're reason why all the doors are closed
So you can open one that leads you to the perfect road

Like a lightning bolt, your heart will blow
And when it's time, you'll know

You just gotta ignite the light
And let it shine
Just own the night
Like the Fourth of July

Cause baby you're a firework
Come on show 'em what your worth
Make 'em go "Oh, oh, oh!"
As you shoot across the sky-y-y

Baby you're a firework
Come on slet your colors burst
Make 'em go "Oh, oh, oh!"
You're gunna leave 'em fallin' down-own-own

Boom, boom, boom
Even brighter than the moon, moon, moon
It's always been inside of you, you, you
And now it's time to let it through

Cause baby you're a firework
Come on show 'em what your worth
Make 'em go "Oh, oh, oh!"
As you shoot across the sky-y-y

Baby you're a firework
Come on slet your colors burst
Make 'em go "Oh, oh, oh!"
You're gunna leave 'em goin "Oh, oh, oh!"

Boom, boom, boom
Even brighter than the moon, moon, moon
Boom, boom, boom
Even brighter than the moon, moon, moon[/b]

[b]General
Complete name









: Katy Perry - Firework.mp4
Format












: MPEG-4
Format profile








: Base Media / Version 2
Codec ID











: mp42
File size











: 58.3 MiB
Duration











: 3mn 57s
Overall bit rate







: 2 059 Kbps


Video
ID














: 1
Format












: AVC
Format/Info










: Advanced Video Codec
Format profile








: [email protected]/* */
Format settings, CABAC




: Yes
Format settings, ReFrames



: 1 frame
Codec ID











: avc1
Codec ID/Info









: Advanced Video Coding
Duration











: 3mn 57s
Bit rate mode









: Variable
Bit rate











: 1 927 Kbps
Maximum bit rate







: 8 410 Kbps
Width













: 1 280 pixels
Height












: 720 pixels
Display aspect ratio





: 16:9
Frame rate mode








: Variable
Frame rate










: 23.976 fps
Minimum frame rate






: 17.241 fps
Maximum frame rate






: 24.390 fps
Color space










: YUV
Chroma subsampling






: 4:2:0
Bit depth











: 8 bits
Scan type











: Progressive
Bits/(Pixel*Frame)






: 0.087
Stream size










: 54.6 MiB (94%)


Audio
ID














: 2
Format












: AAC
Format/Info










: Advanced Audio Codec
Format version








: Version 4
Format profile








: LC
Format settings, SBR





: No
Codec ID











: 40
Duration











: 3mn 57s
Bit rate mode









: Variable
Bit rate











: 126 Kbps
Maximum bit rate







: 161 Kbps
Channel(s)










: 2 channels
Channel positions







: Front: L R
Sampling rate









: 44.1 KHz
Stream size










: 3.58 MiB (6%)

SCREENSHOT-
http://www.postimg.com/24000/23958.jpg