Katy Perry – Last Friday Night [T.G.I.F.] 720p [Sbyky]


Size : 130.57 MiB (136911598 Bytes)

[IMG]http://yuq.me/users/18/139/XpD8nmAtqY.png[/IMG]

General
Complete name













: Katy Perry - Last Friday Night [T.G.I.F.] 720p [Sbyky].mp4
Format
















: MPEG-4
Format profile












: Base Media / Version 2
Codec ID















: mp42
File size















: 131 MiB
Duration















: 8mn 10s
Overall bit rate mode









: Variable
Overall bit rate











: 2 233 Kbps
Encoded date













: UTC 2011-06-09 14:57:39
Tagged date














: UTC 2011-06-09 14:57:39

Video
ID


















: 1
Format
















: AVC
Format/Info














: Advanced Video Codec
Format profile












: [email protected]/* */
Format settings, CABAC








: Yes
Format settings, ReFrames







: 1 frame
Format settings, GOP









: M=1, N=30
Codec ID















: avc1
Codec ID/Info













: Advanced Video Coding
Duration















: 8mn 10s
Bit rate















: 2 077 Kbps
Maximum bit rate











: 7 144 Kbps
Width

















: 1 280 pixels
Height
















: 720 pixels
Display aspect ratio









: 16:9
Frame rate mode












: Variable
Frame rate














: 23.976 fps
Minimum frame rate










: 17.241 fps
Maximum frame rate










: 24.390 fps
Color space














: YUV
Chroma subsampling










: 4:2:0
Bit depth















: 8 bits
Scan type















: Progressive
Bits/(Pixel*Frame)










: 0.094
Stream size














: 121 MiB (93%)
Tagged date














: UTC 2011-06-09 14:57:45

Audio
ID


















: 2
Format
















: AAC
Format/Info














: Advanced Audio Codec
Format profile












: LC
Codec ID















: 40
Duration















: 8mn 10s
Bit rate mode













: Variable
Bit rate















: 150 Kbps
Maximum bit rate











: 211 Kbps
Channel(s)














: 2 channels
Channel positions











: Front: L R
Sampling rate













: 44.1 KHz
Compression mode











: Lossy
Stream size














: 8.78 MiB (7%)
Title

















: IsoMedia File Produced by Google, 5-11-2011
Encoded date













: UTC 2011-06-09 14:57:41
Tagged date














: UTC 2011-06-09 14:57:45

Shared By Sbyky
[IMG]http://yuq.me/users/18/139/0aq32UMZvX.gif[/IMG]
[IMG]http://yuq.me/users/18/139/bQg62viaEG.gif[/IMG]