Katy Perry – Rise – 2016 – Full HD 1080p.mkv

Magnet Download Torrent Download

Size : 70.56 MiB (73984007 Bytes)

===================================================================
General
Katy Perry - Rise - 2016 - Full HD 1080p.mkv
Format










: Matroska
Format version






: Version 4 / Version 2
File size








: 70.6 MiB
Duration









: 3 min
Overall bit rate mode


: Variable
Overall bit rate





: 3 001 kb/s
======================================================================
Video
ID












: 1
Format










: AVC
Format/Info







: Advanced Video Codec
Format profile






: [email protected]/* */
Format settings, CABAC


: Yes
Format settings, ReFrames
: 3 frames
Codec ID









: V_MPEG4/ISO/AVC
Duration









: 3 min
Bit rate mode






: Variable
Bit rate









: 2 806 kb/s
Maximum bit rate





: 40.0 Mb/s
Width










: 1 920 pixels
Height










: 816 pixels
Display aspect ratio



: 2.35:1
Frame rate mode





: Constant
Frame rate








: 23.976 (24000/1001) FPS
Color space







: YUV
Chroma subsampling




: 4:2:0
Bit depth








: 8 bits
Scan type








: Progressive
Bits/(Pixel*Frame)




: 0.075
Stream size







: 66.0 MiB (93%)
Title










: .....::::: TaRa :::::.....
Language









: English
Default









: Yes
Forced










: No
=====================================================================
Audio
ID












: 2
Format










: AAC
Format/Info







: Advanced Audio Codec
Format profile






: LC
Codec ID









: A_AAC
Duration









: 3 min
Bit rate









: 192 kb/s
Channel(s)








: 2 channels
Channel positions




: Front: L R
Sampling rate






: 44.1 kHz
Frame rate








: 43.066 FPS (1024 spf)
Compression mode





: Lossy
Delay relative to video

: 10 ms
Stream size







: 4.52 MiB (6%)
Title










: .....::::: TaRa :::::.....
Language









: English
Default









: Yes
Forced










: No
======================================================================== http://imgur.com/axcN47u http://imgur.com/Smieo4Y