Katy Perry – Teenage Dream [Music Video] 1080p [Sbyky]


Size : 111.37 MiB (116780954 Bytes)

[IMG]http://yuq.me/users/18/139/JDMVixsUOj.png[/IMG]

General
Complete name













: Katy Perry - Teenage Dream [Music Video] 1080p [Sbyky].mp4
Format
















: MPEG-4
Format profile












: Base Media / Version 2
Codec ID















: mp42
File size















: 111 MiB
Duration















: 3mn 49s
Overall bit rate mode









: Variable
Overall bit rate











: 4 063 Kbps
Encoded date













: UTC 2013-04-08 04:24:02
Tagged date














: UTC 2013-04-08 04:24:02

Video
ID


















: 1
Format
















: AVC
Format/Info














: Advanced Video Codec
Format profile












: [email protected]/* */
Format settings, CABAC








: Yes
Format settings, ReFrames







: 1 frame
Codec ID















: avc1
Codec ID/Info













: Advanced Video Coding
Duration















: 3mn 49s
Bit rate















: 3 869 Kbps
Maximum bit rate











: 8 701 Kbps
Width

















: 1 920 pixels
Height
















: 1 080 pixels
Display aspect ratio









: 16:9
Frame rate mode












: Variable
Frame rate














: 23.962 fps
Minimum frame rate










: 19.721 fps
Maximum frame rate










: 23.976 fps
Color space














: YUV
Chroma subsampling










: 4:2:0
Bit depth















: 8 bits
Scan type















: Progressive
Bits/(Pixel*Frame)










: 0.078
Stream size














: 106 MiB (95%)
Tagged date














: UTC 2013-04-08 04:24:48

Audio
ID


















: 2
Format
















: AAC
Format/Info














: Advanced Audio Codec
Format profile












: LC
Codec ID















: 40
Duration















: 3mn 49s
Bit rate mode













: Variable
Bit rate















: 192 Kbps
Maximum bit rate











: 204 Kbps
Channel(s)














: 2 channels
Channel positions











: Front: L R
Sampling rate













: 44.1 KHz
Compression mode











: Lossy
Stream size














: 5.26 MiB (5%)
Title

















: IsoMedia File Produced by Google, 5-11-2011
Encoded date













: UTC 2013-04-08 04:24:33
Tagged date














: UTC 2013-04-08 04:24:48

Shared By Sbyky
[IMG]http://yuq.me/users/18/139/0aq32UMZvX.gif[/IMG]
[IMG]http://yuq.me/users/18/139/bQg62viaEG.gif[/IMG]