Khumba.3D.2013.1080p.BRRip.HSBS.x264.Hun.Eng


Size : 5.59 GiB (6004154987 Bytes)


Khumba.3D.2013.1080p.BRRip.HSBS.x264.Hun.Eng
http://www.imdb.com/title/tt1487931/

General
Unique ID















: 195788351155603952726170935211995216343 (0x934B76FECA17C2EE871692BC7A2CB9D7)
Complete name













: F:Khumba.3D.2013.1080p.BRRip.HSBS.x264.Hun.EngKhumba 3D (2013) HSBS 1080p.mkv
Format
















: Matroska
Format version












: Version 4 / Version 2
File size















: 5.59 GiB
Duration















: 1h 25mn
Overall bit rate











: 9 385 Kbps
Encoded date













: UTC 2014-03-07 07:44:32
Writing application










: mkvmerge v6.7.0 ('Back to the Ground') 64bit built on Jan
8 2014 15:10:52
Writing library












: libebml v1.3.0 + libmatroska v1.4.1

Video
ID


















: 1
Format
















: AVC
Format/Info














: Advanced Video Codec
Format profile












: [email protected]/* */
MultiView_Count












: 2
MultiView_Layout











: Side by Side (left eye first)
Format settings, CABAC








: Yes
Format settings, ReFrames







: 4 frames
Codec ID















: V_MPEG4/ISO/AVC
Duration















: 1h 25mn
Bit rate















: 8 174 Kbps
Width

















: 1 920 pixels
Height
















: 1 080 pixels
Display aspect ratio









: 16:9
Frame rate mode












: Constant
Frame rate














: 23.976 fps
Color space














: YUV
Chroma subsampling










: 4:2:0
Bit depth















: 8 bits
Scan type















: Progressive
Bits/(Pixel*Frame)










: 0.164
Stream size














: 4.87 GiB (87%)
Title

















: Khumba 3D (2013) HSBS 1080p
Writing library












: x264 core 140 r2377kMod 1ca7bb9
Encoding settings











: cabac=1 / ref=4 / deblock=1:-3:-3 / analyse=0x3:0x133 / me=umh / subme=11 / psy=1 / fade_compensate=0.00 / psy_rd=1.05:0.00 / mixed_ref=1 / me_range=48 / chroma_me=1 / trellis=2 / 8x8dct=1 / cqm=0 / deadzone=21,11 / fast_pskip=0 / chroma_qp_offset=-2 / threads=18 / lookahead_threads=3 / sliced_threads=0 / nr=0 / decimate=0 / interlaced=0 / bluray_compat=0 / constrained_intra=0 / fgo=0 / bframes=9 / b_pyramid=2 / b_adapt=2 / b_bias=0 / direct=3 / weightb=1 / open_gop=0 / weightp=2 / keyint=250 / keyint_min=23 / scenecut=40 / intra_refresh=0 / rc=crf / mbtree=0 / crf=16.0000 / qcomp=0.75 / qpmin=0 / qpmax=69 / qpstep=4 / frame-packing=3 / ip_ratio=1.40 / pb_ratio=1.20 / aq=2:0.80 / zones=34632,44402,crf=12/99315,104657,crf=15
Default
















: Yes
Forced
















: No

Audio #1
ID


















: 2
Format
















: AC-3
Format/Info














: Audio Coding 3
Mode extension












: CM (complete main)
Format settings, Endianness






: Big
Codec ID















: A_AC3
Duration















: 1h 25mn
Bit rate mode













: Constant
Bit rate















: 384 Kbps
Channel count













: 6 channels
Channel positions











: Front: L C R, Side: L R, LFE
Sampling rate













: 48.0 KHz
Bit depth















: 16 bits
Compression mode











: Lossy
Stream size














: 234 MiB (4%)
Title

















: 5.1
Language















: Hungarian
Default
















: Yes
Forced
















: No

Audio #2
ID


















: 3
Format
















: AC-3
Format/Info














: Audio Coding 3
Mode extension












: CM (complete main)
Format settings, Endianness






: Big
Codec ID















: A_AC3
Duration















: 1h 25mn
Bit rate mode













: Constant
Bit rate















: 640 Kbps
Channel count













: 6 channels
Channel positions











: Front: L C R, Side: L R, LFE
Sampling rate













: 48.0 KHz
Bit depth















: 16 bits
Compression mode











: Lossy
Stream size














: 390 MiB (7%)
Title

















: 5.1
Language















: English
Default
















: No
Forced
















: No

Text #1
ID


















: 4
Format
















: VobSub
Muxing mode














: zlib
Codec ID















: S_VOBSUB
Codec ID/Info













: The same subtitle format used on DVDs
Title

















: 3D
Language















: English
Default
















: No
Forced
















: No

Text #2
ID


















: 5
Format
















: VobSub
Muxing mode














: zlib
Codec ID















: S_VOBSUB
Codec ID/Info













: The same subtitle format used on DVDs
Title

















: 3D SDH
Language















: English
Default
















: No
Forced
















: No
http://www.port.hu/khumba/pls/fi/films.film_page?i_topic_id=2&i_film_id=142614&i_city_id=-1&i_county_id=-1