Kraina Lodu 3D (OU) (2013) [miniHD.1080p.AC3.gixerk9] Dubbing PL


Size : 1.79 GiB (1922816651 Bytes)

Anna wyrusza na wielką wyprawę, by odnaleźć swoją siostrę Elsę, której magiczna moc uwięziła królestwo Arendelle w okowach wiecznej zimy. W poszukiwaniach towarzyszy jej Kristoff, przed którym górskie szlaki nie kryją żadnych tajemnic i jego lojalny renifer Sven. Podczas misji ocalenia królestwa przyjaciele zmierzą się z surową pogodą, napotkają niebotyczne góry, tajemnicze trolle i zabawnego bałwana o imieniu Olaf.

http://i.imgur.com/NAiglms.jpg
http://i.imgur.com/nRiCcx4.jpg
http://i.imgur.com/I7GaZwi.jpg
http://i.imgur.com/XJxL6Xy.jpg
http://i.imgur.com/jDylq4Y.jpg


Dane Techniczne:

Format
















: Matroska
Format version












: Version 2
File size















: 1.79 GiB
Duration















: 1h 42mn
Overall bit rate











: 2 508 Kbps
Movie name














: Kraina Lodu (2013) (miniHD-gixerk9)
Encoded date













: UTC 2014-03-27 07:26:01
Writing application










: mkvmerge v5.7.0 ('The Whirlwind') built on Jul
8 2012 20:08:51
Writing library












: libebml v1.2.3 + libmatroska v1.3.0

Video
ID


















: 1
Format
















: AVC
Format/Info














: Advanced Video Codec
Format profile












: [email protected]/* */
Format settings, CABAC








: Yes
Format settings, ReFrames







: 2 frames
Codec ID















: V_MPEG4/ISO/AVC
Duration















: 1h 42mn
Bit rate















: 2 138 Kbps
Width

















: 1 920 pixels
Height
















: 1 080 pixels
Display aspect ratio









: 16:9
Frame rate mode












: Constant
Frame rate














: 23.976 fps
Color space














: YUV
Chroma subsampling










: 4:2:0
Bit depth















: 8 bits
Scan type















: Progressive
Bits/(Pixel*Frame)










: 0.043
Stream size














: 1.53 GiB (85%)
Writing library












: x264 core
Default
















: Yes
Forced
















: No
Color primaries












: BT.709
Transfer characteristics







: BT.709
Matrix coefficients










: BT.709

Audio
ID


















: 2
Format
















: AC-3
Format/Info














: Audio Coding 3
Mode extension












: CM (complete main)
Format settings, Endianness






: Big
Codec ID















: A_AC3
Duration















: 1h 42mn
Bit rate mode













: Constant
Bit rate















: 320 Kbps
Channel(s)














: 6 channels
Channel positions











: Front: L C R, Side: L R, LFE
Sampling rate













: 48.0 KHz
Bit depth















: 16 bits
Compression mode











: Lossy
Stream size














: 234 MiB (13%)
Title

















: Dubbing PL
Language















: Polish
Default
















: Yes
Forced
















: No