Kubo.and.the.Two.Strings.2016.1080p.WEB-DL.DD5.1.H264-FGT


Size : 3.5 GiB (3761372970 Bytes)

Kubo.and.the.Two.Strings.2016.1080p.WEB-DL.DD5.1.H264-FGT
http://imdb.com/title/tt4302938/


Video
ID


















: 1
Format
















: AVC
Format/Info














: Advanced Video Codec
Format profile












: [email protected]/* */
Format settings, CABAC








: Yes
Format settings, ReFrames







: 5 frames
Codec ID















: V_MPEG4/ISO/AVC
Duration















: 1h 41mn
Bit rate















: 4 455 Kbps
Width

















: 1 916 pixels
Height
















: 796 pixels
Display aspect ratio









: 2.40:1
Frame rate mode












: Constant
Frame rate














: 23.976 fps
Color space














: YUV
Chroma subsampling










: 4:2:0
Bit depth















: 8 bits
Scan type















: Progressive
Bits/(Pixel*Frame)










: 0.122
Stream size














: 3.16 GiB (90%)
Title

















: Kubo.and.the.Two.Strings.2016.1080p.WEB-DL.DD5.1.H264-FGT
Language















: English
Default
















: Yes
Forced
















: No
Color range














: Limited
Color primaries












: BT.709
Transfer characteristics







: BT.709
Matrix coefficients










: BT.709

Audio
ID


















: 2
Format
















: AC-3
Format/Info














: Audio Coding 3
Mode extension












: CM (complete main)
Format settings, Endianness






: Big
Codec ID















: A_AC3
Duration















: 1h 41mn
Bit rate mode













: Constant
Bit rate















: 384 Kbps
Channel(s)














: 6 channels
Channel positions











: Front: L C R, Side: L R, LFE
Sampling rate













: 48.0 KHz
Frame rate














: 31.250 fps (1536 spf)
Compression mode











: Lossy
Stream size














: 279 MiB (8%)
Title

















: Kubo.and.the.Two.Strings.2016.1080p.WEB-DL.DD5.1.H264-FGT
Language















: English
Default
















: Yes
Forced
















: No

Text
ID


















: 3
Format
















: UTF-8
Codec ID















: S_TEXT/UTF8
Codec ID/Info













: UTF-8 Plain Text
Language















: English
Default
















: Yes
Forced
















: No