Kung.Fu.Panda.1 3D.2008.BRRip.x264.1080p.HSBS.Hun.Eng


Size : 10.92 GiB (11722865495 Bytes)

Kung.Fu.Panda.1 3D.2008.BRRip.x264.1080p.HSBS.Hun.Eng
http://www.imdb.com/title/tt0441773/

General
Unique ID















: 213018347163433426031551293574529936245 (0xA041D762C0A25DD9AE0461D9512BEB75)
Complete name













: F:Kung.Fu.Panda.1-2.3D.2008-2011).1080pKung.Fu.Panda.1 3D.2008.BRRip.x264.1080p.HSBS.Hun.EngKung Fu Panda 1 3D (2008) HSBS 1080p.mkv
Format
















: Matroska
Format version












: Version 4 / Version 2
File size















: 10.9 GiB
Duration















: 1h 31mn
Overall bit rate mode









: Variable
Overall bit rate











: 17.0 Mbps
Encoded date













: UTC 2014-01-12 10:51:20
Writing application










: mkvmerge v6.6.0 ('The Edge Of The In Between') built on Dec
1 2013 17:55:00
Writing library












: libebml v1.3.0 + libmatroska v1.4.1

Video
ID


















: 1
Format
















: AVC
Format/Info














: Advanced Video Codec
Format profile












: [email protected]/* */
Format settings, CABAC








: Yes
Format settings, ReFrames







: 2 frames
Codec ID















: V_MPEG4/ISO/AVC
Duration















: 1h 31mn
Bit rate mode













: Variable
Bit rate















: 15.6 Mbps
Maximum bit rate











: 23.9 Mbps
Width

















: 1 920 pixels
Height
















: 1 080 pixels
Display aspect ratio









: 16:9
Frame rate mode












: Constant
Frame rate














: 23.976 fps
Color space














: YUV
Chroma subsampling










: 4:2:0
Bit depth















: 8 bits
Scan type















: Progressive
Bits/(Pixel*Frame)










: 0.314
Stream size














: 10.0 GiB (92%)
Title

















: Kung Fu Panda 1 3D (2008) HSBS 1080p
Default
















: Yes
Forced
















: No

Audio #1
ID


















: 2
Format
















: AC-3
Format/Info














: Audio Coding 3
Mode extension












: CM (complete main)
Format settings, Endianness






: Big
Codec ID















: A_AC3
Duration















: 1h 31mn
Bit rate mode













: Constant
Bit rate















: 384 Kbps
Channel count













: 6 channels
Channel positions











: Front: L C R, Side: L R, LFE
Sampling rate













: 48.0 KHz
Bit depth















: 16 bits
Compression mode











: Lossy
Stream size














: 253 MiB (2%)
Title

















: 5.1
Language















: Hungarian
Default
















: Yes
Forced
















: No

Audio #2
ID


















: 3
Format
















: AC-3
Format/Info














: Audio Coding 3
Mode extension












: CM (complete main)
Format settings, Endianness






: Big
Codec ID















: A_AC3
Duration















: 1h 31mn
Bit rate mode













: Constant
Bit rate















: 640 Kbps
Channel count













: 6 channels
Channel positions











: Front: L C R, Side: L R, LFE
Sampling rate













: 48.0 KHz
Bit depth















: 16 bits
Compression mode











: Lossy
Stream size














: 421 MiB (4%)
Title

















: 5.1
Language















: English
Default
















: No
Forced
















: No
http://www.port.hu/kung_fu_panda/pls/fi/films.film_page?i_where=2&i_film_id=90320&i_city_id=-1&i_county_id=-1&i_topic_id=2