Kung.Fu.Panda.Secrets.of.the.Scroll.2016.SHORT.WEBRip.480p.x264.


Size : 90.29 MiB (94673736 Bytes)

____

____ ____

____ .___________.
______




/
/


/
/ |




| /
__




/
/


/
/
`---|
|----`|
|
|
|




/

_

_/


|
|

|
|
|
|




/



|
|



|
|

|
`--'
|


__/



|__|



|__|


______/



























Presenting Small Encodes with quality for years!







































































































Kung.Fu.Panda.Secrets.of.the.Scroll.2016.SHORT.WEBRip.480p.x264.AAC-VYTO


Genre: Short, Action, Adventure http://www.imdb.com/title/tt5513770/


Format
















: MPEG-4
File size















: 85.3 MiB
Duration















: 23mn 27s
Overall bit rate











: 508 Kbps

Video
Format
















: AVC
Bit rate















: 473 Kbps
Width

















: 720 pixels
Height
















: 400 pixels
Display aspect ratio









: 16:9
Frame rate mode












: Constant
Frame rate














: 23.976 (24000/1001) fps
Bit depth















: 8 bits
Stream size














: 79.4 MiB (93%)
Writing library












: x264

Audio
Format
















: AAC
Bit rate mode













: Variable
Bit rate















: 31.9 Kbps
Channel(s)














: 2 channels
Channel positions











: Front: L R
Sampling rate













: 48.0 KHz
Frame rate














: 23.438 fps
Stream size














: 5.31 MiB (6%)
Language















: English

Subtitle















: Yes (English)

Screen Shot: (Click to view)
http://ititli.com/XoZ http://ititli.com/Xoc http://ititli.com/Xoi http://ititli.com/Xop http://ititli.com/XoD http://ititli.com/Xoa http://ititli.com/Xob http://ititli.com/Xoz http://ititli.com/XoI http://ititli.com/XoO http://ititli.com/XG9 http://ititli.com/XGX

----------------------------------------------------------------------------------------------------


Encoder Notes: Looking For Early Access To Anything You Can Provide WEBDL, DVDScr, DVDR, BluRay,
Direct Audio, Music Releases and Seedboxes. If You Got anything to offer please contact us.

Support us by donating BC - 1FgwdzPsd1y25Gea8wP1qni35uGCtmkRCD


Find us and join us!