La era del hielo 3 – AVM


Size : 329.81 MiB (345828888 Bytes)

AVIDMobile - http://www.avidmobile.com.ar (Mobile media)

Video
ID














: 1
Format












: MPEG-4 Visual
Format profile








: [email protected]/* */
Format settings, BVOP





: No
Format settings, QPel





: No
Format settings, GMC





: No warppoints
Format settings, Matrix




: Default (H.263)
Codec ID











: 20
Duration











: 1h 21mn
Bit rate mode









: Variable
Bit rate











: 503 Kbps
Maximum bit rate







: 1 825 Kbps
Width













: 320 pixels
Height












: 240 pixels
Display aspect ratio





: 4/3
Frame rate mode








: Variable
Frame rate










: 23.976 fps
Minimum frame rate






: 23.974 fps
Maximum frame rate






: 23.981 fps
Resolution










: 24 bits
Colorimetry










: 4:2:0
Scan type











: Progressive
Bits/(Pixel*Frame)






: 0.273
Stream size










: 292 MiB (89%)

Audio
ID














: 2
Format












: AAC
Format/Info










: Advanced Audio Codec
Format version








: Version 4
Format profile








: LC
Format settings, SBR





: No
Codec ID











: 40
Duration











: 1h 21mn
Bit rate mode









: Variable
Bit rate











: 62.8 Kbps
Maximum bit rate







: 79.7 Kbps
Channel(s)










: 2 channels
Channel positions







: L R
Sampling rate









: 22.05 KHz
Resolution










: 16 bits
Stream size










: 36.4 MiB (11%)