Lady Gaga – David Bowie Tribute from The 58th Grammys 2016


Size : 202.45 MiB (212288854 Bytes)

LADY GAGA DAVID BOWIE TRIBUTE AT THE GRAMMYS 2016

http://gifyu.com/images/GaGa.png
http://gifyu.com/images/GaGa-1.png
http://gifyu.com/images/GaGa-2.png


MEDIA INFO
General
Lady Gaga - David Bowie Tribute from The 58th Grammys
Format
















: MPEG-4
Format profile












: Base Media
Codec ID















: isom (isom/iso2/avc1/mp41)
File size















: 202 MiB
Duration















: 6mn 24s
Overall bit rate











: 4 417 Kbps
MusicVid name













: David Bowie Tribute from Grammys
Performer















: Lady Gaga
Genre

















: Pop
ContentType














: Music Video
Recorded date













: 2016
Make

















: MeRaDil
Cover

















: Yes
Comment
















: Live performance from the 58th Grammys.
Release time













: USA - february 15 - 2016

Video
ID


















: 1
Format
















: AVC
Format/Info














: Advanced Video Codec
Format profile












: [email protected]/* */
Format settings, CABAC








: Yes
Format settings, ReFrames







: 2 frames
Codec ID















: avc1
Codec ID/Info













: Advanced Video Coding
Duration















: 6mn 24s
Bit rate















: 4 142 Kbps
Width

















: 1 920 pixels
Height
















: 1 080 pixels
Display aspect ratio









: 16:9
Frame rate mode












: Variable
Frame rate














: 23.976 (24000/1001) fps
Stream size














: 190 MiB (94%)

Audio
ID


















: 2
Format
















: AAC
Format/Info














: Advanced Audio Codec
Format profile












: LC
Codec ID















: 40
Duration















: 6mn 24s
Bit rate mode













: Constant
Bit rate















: 256 Kbps
Channel(s)














: 2 channels
Channel positions











: Front: L R
Sampling rate













: 44.1 KHz
Frame rate














: 43.066 fps (1024 spf)
Compression mode











: Lossy
Stream size














: 11.7 MiB (6%)
Default
















: Yes
Alternate group












: 1