Lana Del Rey – Blue Jeans [Music Video] 1080p [Sbyky]


Size : 90.38 MiB (94767683 Bytes)

[IMG]http://cdn.piczend.com/images/CnMNyJ8Y/1379759177_bluejeans.jpg[/IMG]

General
Complete name













: Lana Del Rey - Blue Jeans [Music Video] 1080p [Sbyky].mp4
Format
















: MPEG-4
Format profile












: Base Media / Version 2
Codec ID















: mp42
File size















: 90.4 MiB
Duration















: 4mn 20s
Overall bit rate mode









: Variable
Overall bit rate











: 2 906 Kbps
Encoded date













: UTC 2013-04-08 05:13:56
Tagged date














: UTC 2013-04-08 05:13:56

Video
ID


















: 1
Format
















: AVC
Format/Info














: Advanced Video Codec
Format profile












: [email protected]/* */
Format settings, CABAC








: Yes
Format settings, ReFrames







: 1 frame
Format settings, GOP









: M=1, N=48
Codec ID















: avc1
Codec ID/Info













: Advanced Video Coding
Duration















: 4mn 20s
Bit rate















: 2 712 Kbps
Maximum bit rate











: 8 959 Kbps
Width

















: 1 920 pixels
Height
















: 1 080 pixels
Display aspect ratio









: 16:9
Frame rate mode












: Constant
Frame rate














: 23.976 fps
Color space














: YUV
Chroma subsampling










: 4:2:0
Bit depth















: 8 bits
Scan type















: Progressive
Bits/(Pixel*Frame)










: 0.055
Stream size














: 84.3 MiB (93%)
Tagged date














: UTC 2013-04-08 05:14:02

Audio
ID


















: 2
Format
















: AAC
Format/Info














: Advanced Audio Codec
Format profile












: LC
Codec ID















: 40
Duration















: 4mn 20s
Bit rate mode













: Variable
Bit rate















: 192 Kbps
Maximum bit rate











: 203 Kbps
Channel(s)














: 2 channels
Channel positions











: Front: L R
Sampling rate













: 44.1 KHz
Compression mode











: Lossy
Stream size














: 5.97 MiB (7%)
Title

















: IsoMedia File Produced by Google, 5-11-2011
Encoded date













: UTC 2013-04-08 05:14:00
Tagged date














: UTC 2013-04-08 05:14:02

Shared By Sbyky
[IMG]http://cdn.piczend.com/images/X3Ag13N3/1379453786_saythanks.gif[/IMG]
[IMG]http://cdn.piczend.com/images/gGqhX2S8/1379453780_keepseeding.gif[/IMG]