Leonard Cohen – Live at the Isle of Wight [BDRip-720p-Mkv-Eng/Ac


Size : 2.17 GiB (2334610774 Bytes)

Leonard Cohen - Live at the Isle of Wight [BDRip-720p-Mkv-Eng/Ac3][TNTVillage.Scambioetico]



General
Complete name









: C:\Leonard Cohen - Live at the Isle of Wight [BDRip-720p-Eng-Ac3-MultiSub-Chapters][RiP By MaX].mkv
Format












: Matroska
File size











: 2.17 GiB
Duration











: 1h 4mn
Overall bit rate







: 4 854 Kbps
Encoded date









: UTC 2010-10-16 18:16:41
Writing application






: mkvmerge v4.3.0 ('Escape from the Island') built on Sep
5 2010 10:30:51
Writing library








: libebml v1.0.0 + libmatroska v1.0.0

Video
ID














: 1
Format












: AVC
Format/Info










: Advanced Video Codec
Format profile








: [email protected]/* */
Format settings, CABAC




: Yes
Format settings, ReFrames



: 5 frames
Muxing mode










: Container [email protected]/* */
Codec ID











: V_MPEG4/ISO/AVC
Duration











: 1h 4mn
Bit rate











: 4 243 Kbps
Width













: 1 280 pixels
Height












: 710 pixels
Display aspect ratio





: 16:9
Frame rate










: 29.970 fps
Color space










: YUV
Chroma subsampling






: 4:2:0
Bit depth











: 8 bits
Scan type











: Progressive
Bits/(Pixel*Frame)






: 0.156
Stream size










: 1.84 GiB (85%)
Title













: Leonard Cohen - Live at the Isle of Wight [BDRip 720p][RiP By MaX]
Writing library








: x264 core 107 r1745 4785e8e
Encoding settings







: cabac=1 / ref=5 / deblock=1:0:0 / analyse=0x3:0x133 / me=hex / subme=7 / psy=1 / psy_rd=1.00:0.00 / mixed_ref=1 / me_range=16 / chroma_me=1 / trellis=1 / 8x8dct=1 / cqm=0 / deadzone=21,11 / fast_pskip=0 / chroma_qp_offset=-2 / threads=6 / sliced_threads=0 / nr=0 / decimate=0 / interlaced=0 / constrained_intra=0 / bframes=2 / b_pyramid=2 / b_adapt=1 / b_bias=0 / direct=3 / weightb=1 / open_gop=0 / weightp=2 / keyint=240 / keyint_min=24 / scenecut=40 / intra_refresh=0 / rc_lookahead=40 / rc=2pass / mbtree=1 / bitrate=4243 / ratetol=1.0 / qcomp=0.60 / qpmin=10 / qpmax=51 / qpstep=4 / cplxblur=20.0 / qblur=0.5 / ip_ratio=1.40 / aq=1:1.00

Audio
ID














: 2
Format












: AC-3
Format/Info










: Audio Coding 3
Mode extension








: CM (complete main)
Codec ID











: A_AC3
Duration











: 1h 4mn
Bit rate mode









: Constant
Bit rate











: 640 Kbps
Channel(s)










: 6 channels
Channel positions







: Front: L C R, Side: L R, LFE
Sampling rate









: 48.0 KHz
Bit depth











: 16 bits
Stream size










: 294 MiB (13%)
Title













: Eng Ac3 5.1

Text #1
ID














: 3
Format












: UTF-8
Codec ID











: S_TEXT/UTF8
Codec ID/Info









: UTF-8 Plain Text
Title













: Sub Ita
Language











: Italian

Text #2
ID














: 4
Format












: UTF-8
Codec ID











: S_TEXT/UTF8
Codec ID/Info









: UTF-8 Plain Text
Title













: Sub Eng

Text #3
ID














: 5
Format












: UTF-8
Codec ID











: S_TEXT/UTF8
Codec ID/Info









: UTF-8 Plain Text
Title













: Sub Esp
Language











: Spanish

Text #4
ID














: 6
Format












: UTF-8
Codec ID











: S_TEXT/UTF8
Codec ID/Info









: UTF-8 Plain Text
Title













: Sub Fra
Language











: French

Text #5
ID














: 7
Format












: UTF-8
Codec ID











: S_TEXT/UTF8
Codec ID/Info









: UTF-8 Plain Text
Title













: Sub Deu
Language











: German

Text #6
ID














: 8
Format












: UTF-8
Codec ID











: S_TEXT/UTF8
Codec ID/Info









: UTF-8 Plain Text
Title













: Sub Ned
Language











: Dutch

Menu
00:00:00.000









: :Intro: Diamonds In The Mine
00:02:47.667









: :Famous Blue Raincoat
00:04:01.241









: :“It’s A Large Nation”
00:09:09.048









: :Bird On The Wire
00:13:24.804









: :One Of Us Cannot Be Wrong
00:18:55.901









: :The Stranger Song
00:25:43.742









: :Tonight Will Be Fine
00:31:54.846









: :“They’ve Surrounded The Island”
00:34:32.570









: :Hey, That’s No Way To Say Goodbye
00:38:11.289









: :Sing Another Song Boys
00:42:31.048









: :Judy Collins Introduces Suzanne
00:43:35.112









: :Suzanne
00:47:42.693









: :Joan Baez On The Isle Of Wight
00:49:40.811









: :The Partisan
00:56:25.882









: :Seems So Long Ago, Nancy
01:01:18.174









: :Credits: So Long, Marianne