Lil Wayne + Charlie Puth – Nothing But Trouble (2015)


Size : 93.4 MiB (97932192 Bytes)

LIL WAYNE & CHARLIE PUTH - NOTHING BUT TROUBLE

http://gifyu.com/images/LWCP-1.png


MEDIA INFO
General
Lil Wayne & Charlie Puth - Nothing But Trouble
Format
















: MPEG-4
Format profile












: Base Media
Codec ID















: isom
File size















: 93.4 MiB
Duration















: 3mn 34s
Overall bit rate











: 3 649 Kbps
MusicVid name













: Nothing But Trouble
Album

















: 808 The Music
Performer















: Lil Wayne & Charlie Puth
Genre

















: HipHop
ContentType














: Music Video
Recorded date













: 2015
Comment
















: from the documentary 808 The Film
Make

















: MeRaDil
Release date













: USA - august 24 - 2015
Part_ID
















: Nothing But Trouble
https://thepiratebay.la/user/MeRaDil

Video
ID


















: 1
Format
















: AVC
Format/Info














: Advanced Video Codec
Format profile












: [email protected]/* */
Format settings, CABAC








: Yes
Format settings, ReFrames







: 2 frames
Codec ID















: avc1
Codec ID/Info













: Advanced Video Coding
Duration















: 3mn 34s
Bit rate















: 3 381 Kbps
Width

















: 1 920 pixels
Height
















: 1 080 pixels
Display aspect ratio









: 16:9
Frame rate mode












: Variable
Frame rate














: 23.976 fps
Minimum frame rate










: 23.974 fps
Maximum frame rate










: 23.981 fps
Color space














: YUV
Chroma subsampling










: 4:2:0
Bit depth















: 8 bits
Scan type















: Progressive
Bits/(Pixel*Frame)










: 0.068
Stream size














: 86.5 MiB (93%)

Audio
ID


















: 2
Format
















: AAC
Format/Info














: Advanced Audio Codec
Format profile












: LC
Codec ID















: 40
Duration















: 3mn 34s
Bit rate mode













: Constant
Bit rate















: 256 Kbps
Channel(s)














: 2 channels
Channel positions











: Front: L R
Sampling rate













: 44.1 KHz
Compression mode











: Lossy
Stream size














: 6.55 MiB (7%)

Lil Wayne * Charlie Puth * Promo * HipHop/Pop * 808 The Film