Little Mix ft.Jason Derulo – Secret Love Song (2016 RnB)


Size : 68.04 MiB (71347608 Bytes)

LITTLE MIX ft.JASON DERULO - SECRET LOVE SONG

http://gifyu.com/images/SecretLove-1.png
http://gifyu.com/images/SecretLove.png


MEDIAINFO
General
Little Mix ft. Jason Derulo - Secret Love Song
Format
















: MPEG-4
Format profile












: Base Media
Codec ID















: isom
File size















: 68.0 MiB
Duration















: 4mn 20s
Overall bit rate











: 2 191 Kbps
MusicVid name













: Secret Love Song
Album

















: Get Weird
Performer















: Little Mix ft. Jason Derulo
Genre

















: RnB
ContentType














: Music Video
Recorded date













: 2016
Writing application










: Lavf56.32.100 / MeRaDil
Cover

















: Yes
Artist url














: http://www.little-mix.com/
Releasetime














: UK . february 3 . 2016

Video
ID


















: 1
Format
















: AVC
Format/Info














: Advanced Video Codec
Format profile












: [email protected]/* */
Format settings, CABAC








: Yes
Format settings, ReFrames







: 3 frames
Codec ID















: avc1
Codec ID/Info













: Advanced Video Coding
Duration















: 4mn 20s
Bit rate















: 1 915 Kbps
Width

















: 1 920 pixels
Height
















: 1 080 pixels
Display aspect ratio









: 16:9
Frame rate mode












: Constant
Frame rate














: 25.000 fps
Color space














: YUV
Chroma subsampling










: 4:2:0
Bit depth















: 8 bits
Scan type















: Progressive
Bits/(Pixel*Frame)










: 0.037
Stream size














: 59.4 MiB (87%)
Color primaries












: BT.709
Transfer characteristics







: BT.709
Matrix coefficients










: BT.709

Audio
ID


















: 2
Format
















: AAC
Format/Info














: Advanced Audio Codec
Format profile












: LC
Codec ID















: 40
Duration















: 4mn 20s
Bit rate mode













: Constant
Bit rate















: 256 Kbps
Channel(s)














: 2 channels
Channel positions











: Front: L R
Sampling rate













: 44.1 KHz
Compression mode











: Lossy
Stream size














: 7.95 MiB (12%)