Little Mix – Shout Out to My Ex (Official Video) – Full HD 1080


Size : 110.32 MiB (115675683 Bytes)

====================================================================
General
Complete name






:Little Mix - Shout Out to My Ex (Official Video) -
Full HD 1080p.MP4
Format










: MPEG-4
Format profile






: Base Media
Codec ID









: isom (isom/iso2/avc1/mp41)
File size








: 110 MiB
Duration









: 4 min 8 s
Overall bit rate mode


: Variable
Overall bit rate





: 3 724 kb/s
Encoded date







: UTC 2016-11-11 02:04:35
Tagged date







: UTC 2016-11-11 02:04:35
===================================================================
Video
ID












: 1
Format










: AVC
Format/Info







: Advanced Video Codec
Format profile






: [email protected]/* */
Format settings, CABAC


: Yes
Format settings, ReFrames
: 3 frames
Codec ID









: avc1
Codec ID/Info






: Advanced Video Coding
Duration









: 4 min 8 s
Bit rate









: 3 596 kb/s
Width










: 1 920 pixels
Height










: 1 080 pixels
Display aspect ratio



: 16:9
Frame rate mode





: Constant
Frame rate








: 25.000 FPS
Color space







: YUV
Chroma subsampling




: 4:2:0
Bit depth








: 8 bits
Scan type








: Progressive
Bits/(Pixel*Frame)




: 0.069
Stream size







: 106 MiB (97%)
Encoded date







: UTC 2016-11-11 02:04:35
Tagged date







: UTC 2016-11-11 02:04:35
Color range







: Limited
Color primaries





: BT.709
Transfer characteristics

: BT.709
Matrix coefficients



: BT.709
====================================================================
Audio
ID












: 2
Format










: AAC
Format/Info







: Advanced Audio Codec
Format profile






: LC
Codec ID









: 40
Duration









: 4 min 8 s
Bit rate mode






: Variable
Bit rate









: 126 kb/s
Channel(s)








: 2 channels
Channel positions




: Front: L R
Sampling rate






: 44.1 kHz
Frame rate








: 43.066 FPS (1024 spf)
Compression mode





: Lossy
Stream size







: 3.72 MiB (3%)
Default









: Yes
Alternate group





: 1
Encoded date







: UTC 2016-11-11 01:34:39
Tagged date







: UTC 2016-11-11 01:34:39
=================================================================================== http://extraimage.net/image/wAFs