Living Colour-The Paris Concert 2007 DVDRip x264 AC3 5.1 titler

Magnet Download Torrent Download

Size : 1.55 GiB (1661152406 Bytes)

SOURCE: DVD

Living Colour - New Morning: The Paris Concert (2007) [2008]

http://www.livingcolour.com/
http://www.livingcolour.com/news/living-colour-releases-the-paris-concert-dvd/
https://en.wikipedia.org/wiki/Living_Colour



DVD MENU
---------------- https://someimage.com/u9DD


SCREENSHOTS:
------------------- https://someimage.com/oVOf


The band:
--------------
Vernon Reid: Guitars

Will Calhoun: Drums

Doug Wimbish: Bass

Corey Glover: Vocals
--------------------------


Tracklist:
-------------
1. Type
2. Middle Man
3. Funny Vibe
4. Song Without Sin
5. Nova
6. Sacred Ground
7. Memories Can't Wait
8. Papa Was A Rolling Stone
9. Glamour Boys
10. Crosstown Traffic
11. Go Away
12. Either Way
13. Ignorance Is Bliss
14. Drum Solo
15. Flying
16. Love Rears Ist Ugly Head
17. Cult Of Personality
--------------------------------------

INFO:
-----------
Living Colour needs no introductions: Vernon Reid, Will Calhoun, Doug Wimbish & Corey Glover are top '80s New York musicians. They're one the very few groups that can are authentic sons of Jimi Hendrix. This is obvious in the intense concert these masters of groove gave at the New Morning in 2007. Living Colour's music is the most impressive when it is performed in the intimate heat of a club! The Masters of Groove deliver all their greatest hits and two groundbreaking versions of Crosstown Traffic and Papa was a Rolling Stone. A treat for all connoisseurs of Living Colour's groundbreaking music.
************************************

- Duration: 1h 47mn

- Nominal bit rate: 1566 Kbps

- Res: 720 x 404

- AR: 16:9

- FPS: 29.970 fps

- Audio: AC3, 6 channels, 448 Kbps

************************************

General
---------------
Format : Matroska
Format version : Version 4 / Version 2
File size : 1.52 GiB
Duration : 1h 47mn
Overall bit rate : 2018 Kbps
Encoded date : UTC 2016-11-21 09:31:33
Writing application : mkvmerge v9.5.0 ('Quiet Fire') 64bit
Writing library : libebml v1.3.4 + libmatroska v1.4.5

Video
---------
Format : AVC
Format/Info : Advanced Video Codec
Format profile : [email protected]/* */
Format settings, CABAC : Yes
Format settings, ReFrames : 5 frames
Codec ID : V_MPEG4/ISO/AVC
Duration : 1h 47mn
Bit rate : 1566 Kbps
Width : 720 pixels
Height : 404 pixels
Display aspect ratio : 16:9
Frame rate mode : Constant
Frame rate : 29.970 fps
Color space : YUV
Chroma subsampling : 4:2:0
Bit depth : 8 bits
Scan type : Progressive
Bits/(Pixel*Frame) : 0.180
Stream size : 1.15 GiB (76%)
Writing library : x264 core 142
Encoding settings : cabac=1 / ref=5
Default : Yes
Forced : No


Audio
------------
Format : AC-3
Format/Info : Audio Coding 3
Mode extension : CM (complete main)
Format settings, Endianness : Big
Codec ID : A_AC3
Duration : 1h 47mn
Bit rate mode : Constant
Bit rate : 448 Kbps
Channel(s) : 6 channels
Channel positions : Front: L C R, Side: L R, LFE
Sampling rate : 48.0 KHz
Bit depth : 16 bits
Compression mode : Lossy
Stream size : 345 MiB (22%)
Title : Surround
Language : English
Default : Yes
Forced : No