Los.Pinguinos.de.Madagascar.2014.3D.SBS.1080p.Audio.Latino.AlexH


Size : 1.85 GiB (1987842209 Bytes)

General
Complete name :Los.Pinguinos.de.Madagascar.2014.3D.SBS.1080p.Audio.Latino.AlexHD
Format : MPEG-4
Format profile : Base Media / Version 2
Codec ID : mp42
File size : 1.85 GiB
Duration : 1h 20mn
Overall bit rate : 3 279 Kbps

Video
ID : 1
Format : AVC
Format/Info : Advanced Video Codec
Format profile : [email protected]/* */
Format settings, CABAC : No
Format settings, ReFrames


: 3 frames
Codec ID











: avc1
Codec ID/Info








: Advanced Video Coding
Duration











: 1h 20mn
Bit rate mode








: Variable
Bit rate











: 3 223 Kbps
Width












: 1 920 pixels
Height












: 1 080 pixels
Display aspect ratio





: 16:9
Frame rate mode







: Variable
Frame rate









: 24.000 fps
Minimum frame rate






: 24.000 fps
Maximum frame rate






: 24.024 fps
Color space









: YUV
Chroma subsampling






: 4:2:0
Bit depth










: 8 bits
Scan type










: Progressive
Bits/(Pixel*Frame)






: 0.065
Stream size









: 1.82 GiB (98%)

Audio
ID














: 2
Format











: AAC
Format/Info









: Advanced Audio Codec
Format profile







: LC
Codec ID









: 40
Duration











: 1h 20mn
Bit rate mode








: Variable
Bit rate











: 53.7 Kbps
Maximum bit rate







: 104 Kbps
Channel(s)










: 2 channels
Channel positions






: Front: L R
Sampling rate








: 44.1 KHz
Compression mode







: Lossy
Stream size









: 31.0 MiB (2%)
Language











: Spanish