Lost Frequencies – Are You With Me [MV] 720p [Sbyky]


Size : 17.71 MiB (18567836 Bytes)

General
Complete name













: Lost Frequencies - Are You With Me [Music Video] 720p [Sbyky].MP4
Format
















: MPEG-4
Format profile












: Base Media / Version 2
Codec ID















: mp42 (isom/mp42)
File size















: 17.7 MiB
Duration















: 2 min 16 s
Overall bit rate mode









: Variable
Overall bit rate











: 1 091 kb/s
Encoded date













: UTC 2016-08-24 09:47:53
Tagged date














: UTC 2016-08-24 09:47:53
gsst

















: 0
gstd

















: 136254

Video
ID


















: 1
Format
















: AVC
Format/Info














: Advanced Video Codec
Format profile












: [email protected]/* */
Format settings, CABAC








: Yes
Format settings, ReFrames







: 3 frames
Codec ID















: avc1
Codec ID/Info













: Advanced Video Coding
Duration















: 2 min 16 s
Bit rate















: 961 kb/s
Width

















: 1 280 pixels
Height
















: 720 pixels
Display aspect ratio









: 16:9
Frame rate mode












: Constant
Frame rate














: 25.000 FPS
Color space














: YUV
Chroma subsampling










: 4:2:0
Bit depth















: 8 bits
Scan type















: Progressive
Bits/(Pixel*Frame)










: 0.042
Stream size














: 15.6 MiB (88%)
Title

















: ISO Media file produced by Google Inc.
Encoded date













: UTC 2016-08-24 09:47:53
Tagged date














: UTC 2016-08-24 09:47:53
Color range














: Limited
Color primaries












: BT.709
Transfer characteristics







: BT.709
Matrix coefficients










: BT.709

Audio
ID


















: 2
Format
















: AAC
Format/Info














: Advanced Audio Codec
Format profile












: LC
Codec ID















: 40
Duration















: 2 min 16 s
Bit rate mode













: Variable
Bit rate















: 126 kb/s
Channel(s)














: 2 channels
Channel positions











: Front: L R
Sampling rate













: 44.1 kHz
Frame rate














: 43.066 FPS (1024 spf)
Compression mode











: Lossy
Stream size














: 2.04 MiB (12%)
Title

















: ISO Media file produced by Google Inc.
Encoded date













: UTC 2016-08-24 09:47:53
Tagged date














: UTC 2016-08-24 09:47:53

Shared By Sbyky
[IMG]http://i.imgur.com/vZ960QE.gif[/IMG]
[IMG]http://i.imgur.com/8PlzFy0.gif[/IMG]