loveshhuda (2016) DVDScr x264 AAC TaRa


Size : 1.07 GiB (1152220224 Bytes)

[img]http://i.imgur.com/X2WIlqQ.png[/img]
[img]http://i.imgur.com/ugozAXB.png[/img]
[img]http://i.imgur.com/Uij5LSh.png[/img]
[img]http://i.imgur.com/1ufylgI.png[/img]
[img]http://i.imgur.com/3MGiiNS.png[/img]
[img]http://i.imgur.com/oaiOb9R.png[/img]
[img]http://i.imgur.com/mKGmz79.png[/img]
[img]http://i.imgur.com/OzXS5nr.png[/img]
===================================================================================

Complete name






: loveshhuda
(2016) DVDScr x264
AAC TaRa.mkv
Format










: Matroska
Format version






: Version 4 / Version 2
File size








: 1.07 GiB
Duration









: 2h 11mn
Overall bit rate mode


: Variable
Overall bit rate





: 1 170 Kbps
===================================================================================
Video
ID












: 1
Format










: AVC
Format/Info







: Advanced Video Codec
Format profile






: [email protected]/* */
Format settings, CABAC


: Yes
Format settings, ReFrames
: 3 frames
Codec ID









: V_MPEG4/ISO/AVC
Duration









: 2h 11mn
Bit rate mode






: Variable
Bit rate









: 995 Kbps
Maximum bit rate





: 40.0 Mbps
Width










: 960 pixels
Height










: 408 pixels
Display aspect ratio



: 2.35:1
Frame rate mode





: Constant
Frame rate








: 25.000 fps
Color space







: YUV
Chroma subsampling




: 4:2:0
Bit depth








: 8 bits
Scan type








: Progressive
Bits/(Pixel*Frame)




: 0.102
Stream size







: 934 MiB (85%)
Title










: = __ TaRa ~ DDR __ =
Language









: Hindi
Default









: Yes
Forced










: No
===================================================================================
Audio
ID












: 2
Format










: AAC
Format/Info







: Advanced Audio Codec
Format profile






: HE-AAC / LC
Codec ID









: A_AAC
Duration









: 2h 11mn
Bit rate









: 173 Kbps
Channel(s)








: 2 channels
Channel positions




: Front: L R
Sampling rate






: 44.1 KHz / 22.05 KHz
Frame rate








: 21.533 fps (1024 spf)
Compression mode





: Lossy
Delay relative to video

: 33ms
Stream size







: 163 MiB (15%)
Title










: = __ TaRa ~ DDR __ =
Language









: Hindi
Default









: Yes
Forced










: No
===================================================================================