Lucinda.Williams.Austin.City.Limits.1998.XviD.480p.AC3.448


Size : 5.51 GiB (5913222252 Bytes)

General
Complete name













: D:MusicVideoFolk, Country, WesternLWLucinda Williams Live Austin City LimitsLucinda.Williams.Austin.City.Limits.1998.XviD.480p.AC3.448.avi
Format
















: AVI
Format/Info














: Audio Video Interleave
Format profile












: OpenDML
File size















: 5.51 GiB
Duration















: 1h 14mn
Overall bit rate











: 10.6 Mbps
Writing library












: VirtualDub build 35491/release

Video
ID


















: 0
Format
















: MPEG-4 Visual
Format profile












: Advanced [email protected]/* */
Format settings, BVOP









: 1
Format settings, QPel









: No
Format settings, GMC









: No warppoints
Format settings, Matrix








: Custom
Codec ID















: XVID
Codec ID/Hint













: XviD
Duration















: 1h 14mn
Bit rate















: 10.1 Mbps
Width

















: 720 pixels
Height
















: 480 pixels
Display aspect ratio









: 3:2
Frame rate














: 59.940 fps
Standard















: NTSC
Color space














: YUV
Chroma subsampling










: 4:2:0
Bit depth















: 8 bits
Scan type















: Progressive
Compression mode











: Lossy
Bits/(Pixel*Frame)










: 0.489
Stream size














: 5.27 GiB (96%)
Writing library












: XviD 64

Audio
ID


















: 1
Format
















: AC-3
Format/Info














: Audio Coding 3
Mode extension












: CM (complete main)
Format settings, Endianness






: Big
Codec ID















: 2000
Duration















: 1h 14mn
Bit rate mode













: Constant
Bit rate















: 448 Kbps
Channel(s)














: 6 channels
Channel positions











: Front: L C R, Side: L R, LFE
Sampling rate













: 48.0 KHz
Bit depth















: 16 bits
Compression mode











: Lossy
Stream size














: 238 MiB (4%)
Alignment















: Aligned on interleaves
Interleave, duration









: 32 ms (1.92 video frames)
Interleave, preload duration





: 512 ms