Lukas Graham – 7 Years (2015 Pop)


Size : 72.76 MiB (76294737 Bytes)

 http://gifyu.com/images/7years.png



















MEDIA INFO
Lukas Graham - 7 Years
Format
















: MPEG-4
Format profile












: Base Media
Codec ID















: isom (isom/iso2/avc1/mp41)
File size















: 72.8 MiB
Duration















: 3mn 59s
Overall bitrate












: 2 551 Kbps
MusicVid Name













: 7 Years
Performer















: Lukas Graham
Publisher















: MeRaDil
Genre

















: Pop
ContentType














: Music Video
Recorded date













: 2015
Writing application










: Lavf56.32.100/MeRaDil
Cover

















: Yes
Rating
















: ***
Releasedate














: Denmark - december 15 - 2015
http://gifyu.com/images/7years-lukas.png

Video
ID


















: 1
Format
















: AVC
Format/Info














: Advanced Video Codec
Format profile












: [email protected]/* */
Format settings, CABAC








: Yes
Format settings, ReFrames







: 3 frames
Codec ID















: avc1
Codec ID/Info













: Advanced Video Coding
Duration















: 3mn 59s
Bit rate















: 2 269 Kbps
Width

















: 1 920 pixels
Height
















: 1 036 pixels
Display aspect ratio









: 1.85:1
Frame rate mode












: Variable
Frame rate














: 23.976 (24000/1001) fps
Color space














: YUV
Chroma subsampling










: 4:2:0
Bit depth















: 8 bits
Scan type















: Progressive
Bits/(Pixel*Frame)










: 0.048
Stream size














: 64.7 MiB (89%)

Audio
ID


















: 2
Format
















: AAC
Format/Info














: Advanced Audio Codec
Format profile












: LC
Codec ID















: 40
Duration















: 3mn 59s
Bit rate mode













: Constant
Bit rate















: 256 Kbps
Channel(s)














: 2 channels
Channel positions











: Front: L R
Sampling rate













: 44.1 KHz
Frame rate














: 43.066 fps (1024 spf)
Compression mode











: Lossy
Stream size














: 7.30 MiB (10%)