Mad Max: Fury Road 2015 1080p 3D BluRay Half-SBS x264 RBG DUAL


Size : 14.33 GiB (15382876066 Bytes)

Haunted by his turbulent, Mad Max believes that the best way to survive is not to depend on anyone else besides himself. Still, eventually joining a group of rebels who cross the Wasteland, a war machine led by an elite Empress, angry. This bunch is on the run from a Citadel bullied by Immortan Joe, whom something irreplaceable was stolen. Exasperated with their loss, the Warlord gathers his lethal gang and begins a ruthless persecution of the rebels and the most relentless war on the Road ever.

Title in Brazil: Mad Max - Road Rage
Original Title: Mad Max: Fury Road
Release Date: 2015
Genre: Action / Adventure
Duration: 120 minutes
Directed by George Miller
IMDb: http://www.imdb.com/title/tt1392190/

Size: 14:33 GB
Extension Archive: .MKV
Video Quality: Blu-Ray
Video codec: H.264 / AVC
Audio codec: AC3 5.1 / DTS 5.1
Resolution: 1920 x 1080
Audio: Portuguese / English
Subtitles: Portuguese
Embedded Legend: PorutguÊs / English / French


Video
ID


















: 1
Format
















: AVC
Format/Info














: Advanced Video Codec
Format profile












: [email protected]/* */
Format settings, CABAC








: Yes
Format settings, ReFrames







: 2 frames
Muxing mode














: Header stripping
Codec ID















: V_MPEG4/ISO/AVC
Duration















: 2h 0mn
Bit rate















: 14.6 Mbps
Nominal bit rate











: 15.5 Mbps
Width

















: 1 920 pixels
Height
















: 1 080 pixels
Display aspect ratio









: 16:9
Frame rate














: 23.976 fps
Color space














: YUV
Chroma subsampling










: 4:2:0
Bit depth















: 8 bits
Scan type















: Progressive
Bits/(Pixel*Frame)










: 0.294
Stream size














: 12.3 GiB (86%)
Writing library












: x264 core 142
Encoding settings











: cabac=1 / ref=1 / deblock=1:-1:-1 / analyse=0x3:0 / me=hex / subme=5 / psy=0 / mixed_ref=0 / me_range=16 / chroma_me=1 / trellis=0 / 8x8dct=1 / cqm=0 / deadzone=21,11 / fast_pskip=1 / chroma_qp_offset=0 / threads=8 / lookahead_threads=2 / sliced_threads=0 / nr=0 / decimate=1 / interlaced=0 / bluray_compat=0 / constrained_intra=0 / bframes=2 / b_pyramid=0 / b_adapt=1 / b_bias=0 / direct=1 / weightb=1 / open_gop=0 / weightp=0 / keyint=24 / keyint_min=13 / scenecut=40 / intra_refresh=0 / rc=abr / mbtree=0 / bitrate=15500 / ratetol=1.0 / qcomp=0.60 / qpmin=0 / qpmax=69 / qpstep=4 / ip_ratio=1.40 / pb_ratio=1.30 / aq=1:1.00
Default
















: Yes
Forced
















: No
Color primaries












: BT.709-5, BT.1361, IEC 61966-2-4, SMPTE RP177
Transfer characteristics







: BT.709-5, BT.1361
Matrix coefficients










: BT.709-5, BT.1361, IEC 61966-2-4 709, SMPTE RP177

Audio #1
ID


















: 2
Format
















: AC-3
Format/Info














: Audio Coding 3
Mode extension












: CM (complete main)
Format settings, Endianness






: Big
Muxing mode














: Header stripping
Codec ID















: A_AC3
Duration















: 2h 0mn
Bit rate mode













: Constant
Bit rate















: 448 Kbps
Channel(s)














: 6 channels
Channel positions











: Front: L C R, Side: L R, LFE
Sampling rate













: 48.0 KHz
Bit depth















: 16 bits
Compression mode











: Lossy
Stream size














: 386 MiB (3%)
Language















: Portuguese
Default
















: Yes
Forced
















: No

Audio #2
ID


















: 3
Format
















: DTS
Format/Info














: Digital Theater Systems
Muxing mode














: Header stripping
Codec ID















: A_DTS
Duration















: 2h 0mn
Bit rate mode













: Constant
Bit rate















: 1 510 Kbps
Channel(s)














: 6 channels
Channel positions











: Front: L C R, Side: L R, LFE
Sampling rate













: 48.0 KHz
Bit depth















: 24 bits
Compression mode











: Lossy
Stream size














: 1.27 GiB (9%)
Language















: English
Default
















: No
Forced
















: No

Text #1
ID


















: 4
Format
















: PGS
Muxing mode














: zlib
Codec ID















: S_HDMV/PGS
Codec ID/Info













: The same subtitle format used on BDs/HD-DVDs
Language















: English
Default
















: No
Forced
















: No

Text #2
ID


















: 5
Format
















: PGS
Muxing mode














: zlib
Codec ID















: S_HDMV/PGS
Codec ID/Info













: The same subtitle format used on BDs/HD-DVDs
Language















: French
Default
















: No
Forced
















: No

Text #3
ID


















: 6
Format
















: PGS
Muxing mode














: zlib
Codec ID















: S_HDMV/PGS
Codec ID/Info













: The same subtitle format used on BDs/HD-DVDs
Language















: Portuguese
Default
















: No
Forced
















: No

Text #4
ID


















: 7
Format
















: PGS
Muxing mode














: zlib
Codec ID















: S_HDMV/PGS
Codec ID/Info













: The same subtitle format used on BDs/HD-DVDs
Language















: Portuguese
Default
















: Yes
Forced
















: No



SEED PLEASE

ENJOY