Major Lazer ft.Ellie Goulding+Tarrus Riley – Powerful (2015)


Size : 72.31 MiB (75827114 Bytes)

MAJOR LAZER ft.ELLIE GOULDING & TARRUS RILEY - POWERFUL

http://gifyu.com/images/powerful.png
http://gifyu.com/images/powerful1.png


General
Major Lazer ft. Ellie Goulding & Tarrus Riley - Powerful
Format
















: MPEG-4
Format profile












: Base Media
Codec ID















: isom
File size















: 72.3 MiB
Duration















: 3mn 28s
Overall bit rate











: 2 915 Kbps
MusicVideo name












: Powerful
Album

















: Peace Is The Mission
Performer















: Major Lazer ft. Ellie Goulding & Tarrus Riley
Genre

















: Electronic
ContentType














: Music Video
Recorded date













: 2015
Cover

















: Yes
Rating
















: ***
Make

















: MeRaDil
Release
















: USA - july 23 - 2015

Video
ID


















: 1
Format
















: AVC
Format/Info














: Advanced Video Codec
Format profile












: [email protected]/* */
Format settings, CABAC








: Yes
Format settings, ReFrames







: 2 frames
Codec ID















: avc1
Codec ID/Info













: Advanced Video Coding
Duration















: 3mn 28s
Bit rate















: 2 653 Kbps
Width

















: 1 920 pixels
Height
















: 1 080 pixels
Display aspect ratio









: 16:9
Frame rate mode












: Constant
Frame rate














: 25.000 fps
Color space














: YUV
Chroma subsampling










: 4:2:0
Bit depth















: 8 bits
Scan type















: Progressive
Bits/(Pixel*Frame)










: 0.051
Stream size














: 65.8 MiB (91%)

Audio
ID


















: 2
Format
















: AAC
Format/Info














: Advanced Audio Codec
Format profile












: LC
Codec ID















: 40
Duration















: 3mn 28s
Bit rate mode













: Constant
Bit rate















: 256 Kbps
Channel(s)














: 2 channels
Channel positions











: Front: L R
Sampling rate













: 44.1 KHz
Compression mode











: Lossy
Stream size














: 6.35 MiB (9%)
https://thepiratebay.se/user/MeRaDil

Major Lazer * Ellie Goulding * Tarrus Riley * Electronic * Promo