Maleficent (2014) Dual Audio 3D half OU 1080p


Size : 5.8 GiB (6228071240 Bytes)

 ______
_______
______

___
_


___
--------|
|


| |
_
||

_ |
|
| | |

|
||
|----|


|
_

||
|_|
||
| ||
|
|_| |

|
||
|___
| | |
||


||
|_||_ |


_|

|
||

_
|
| |_|
||


||

__
||

|_
___|
||
| | |
|


||
_
||
|
| ||

_
||


||
|_| |
|______| |__| |__||___|
|_||___| |_||_______||_______|













https://thepiratebay.se/user/darkj6/

Join ThePirateBay Forum:

























https://forum.suprbay.org/member.php?action=register&referrer=908


http://www.imdb.com/title/tt1587310/

Quality : BDRip (by Ash61 )

Container : MKV

Format 3D : Half OverUnder / Vertical anamorphic stereo pair

Procedure angles : left angle first Video

codec : x264 Audio

Codec : AC3



Video: AVC / 23.976 fps / 1920x1080 p / ~ 7.0 Mbps

Audio: # 1 - Russian / AC3 / 48 KHz / 5.1 ch / 640 Kbps ( Dubbed - BD 3D Eur )





# 2 - English / AC3 / 48 KHz / 5.1 ch / 640 Kbps ( Original - BD 3D Eur )


Subtitles External (SRT UTF-8): # 1 - Russian Full

















# 2 - English SDH



General
Unique ID : 209736432877445145199951055312712437739 (0x9DC9C484C2AC0C4A93D1E45278550FEB)
Complete name : E:Maleficent(2014)3D-halfOU(Ash61)Maleficent(2014)3D-halfOU(Ash61).mkv
Format : Matroska
Format version : Version 2
File size : 5.80 GiB
Duration : 1h 37mn
Overall bit rate : 8 520 Kbps
Movie name : Малефисента / Maleficent (2014) 3D
Encoded date : UTC 2014-09-13 05:23:47
Writing application : mkvmerge v5.8.0 ('No Sleep / Pillow') built on Sep 2 2012 15:37:04
Writing library : libebml v1.2.3 + libmatroska v1.3.0

Video
ID : 1
Format : AVC
Format/Info : Advanced Video Codec
Format profile : [email protected]/* */
Format settings, CABAC : Yes
Format settings, ReFrames : 4 frames
Codec ID : V_MPEG4/ISO/AVC
Duration : 1h 37mn
Bit rate : 7 070 Kbps
Width : 1 920 pixels
Height : 1 080 pixels
Display aspect ratio : 16:9
Frame rate mode : Constant
Frame rate : 23.976 fps
Color space : YUV
Chroma subsampling : 4:2:0
Bit depth : 8 bits
Scan type : Progressive
Bits/(Pixel*Frame) : 0.142
Stream size : 4.81 GiB (83%)
Title : BDRip by Ash61
Writing library : x264 core 138 r2358 9e941d1
Encoding settings : cabac=1 / ref=4 / deblock=1:-3:-3 / analyse=0x3:0x113 / me=umh / subme=10 / psy=1 / psy_rd=1.00:0.15 / mixed_ref=1 / me_range=32 / chroma_me=1 / trellis=2 / 8x8dct=1 / cqm=0 / deadzone=21,11 / fast_pskip=1 / chroma_qp_offset=-3 / threads=12 / lookahead_threads=2 / sliced_threads=0 / nr=0 / decimate=1 / interlaced=0 / bluray_compat=0 / constrained_intra=0 / bframes=9 / b_pyramid=2 / b_adapt=2 / b_bias=0 / direct=3 / weightb=1 / open_gop=0 / weightp=2 / keyint=250 / keyint_min=23 / scenecut=40 / intra_refresh=0 / rc_lookahead=60 / rc=crf / mbtree=1 / crf=17.5 / qcomp=0.70 / qpmin=0 / qpmax=69 / qpstep=4 / vbv_maxrate=40000 / vbv_bufsize=30000 / crf_max=0.0 / nal_hrd=none / frame-packing=4 / ip_ratio=1.40 / aq=1:0.70
Language : English
Default : Yes
Forced : No

Audio #1
ID : 2
Format : AC-3
Format/Info : Audio Coding 3
Mode extension : CM (complete main)
Format settings, Endianness : Big
Codec ID : A_AC3
Duration : 1h 37mn
Bit rate mode : Constant
Bit rate : 640 Kbps
Channel(s) : 6 channels
Channel positions : Front: L C R, Side: L R, LFE
Sampling rate : 48.0 KHz
Bit depth : 16 bits
Compression mode : Lossy
Stream size : 446 MiB (8%)
Title : Дубляж - BD 3D Eur
Language : Russian
Default : Yes
Forced : No

Audio #2
ID : 3
Format : AC-3
Format/Info : Audio Coding 3
Mode extension : CM (complete main)
Format settings, Endianness : Big
Codec ID : A_AC3
Duration : 1h 37mn
Bit rate mode : Constant
Bit rate : 640 Kbps
Channel(s) : 6 channels
Channel positions : Front: L C R, Side: L R, LFE
Sampling rate : 48.0 KHz
Bit depth : 16 bits
Compression mode : Lossy
Stream size : 446 MiB (8%)
Title : Original - BD 3D Eur
Language : English
Default : No
Forced : No

Menu
00:00:00.000 : :1
00:03:00.597 : :2
00:08:10.949 : :3
00:14:00.757 : :4
00:19:10.608 : :5
00:25:59.057 : :6
00:33:09.738 : :7
00:38:30.808 : :8
00:43:21.140 : :9
00:46:56.105 : :10
00:51:11.944 : :11
00:54:18.797 : :12
00:58:37.723 : :13
01:01:58.048 : :14
01:05:09.989 : :15
01:09:56.776 : :16
01:15:40.619 : :17
01:17:43.659 : :18
01:25:44.931 : :19
01:28:38.647 : :20

http://i.imgur.com/JAJvLoi.jpg
http://i.imgur.com/nuYfe3Y.jpg