Mana Ft. Shakira – Mi Verdad – 1080p

Magnet Download Torrent Download

Size : 90.36 MiB (94752672 Bytes)

Capturas: http://imgur.com/XCSrGlX

General
Complete name








: C:UsersEliasVideosvid3ManáFt.Shakira-MiVerdad-musicvideos-hq.net.mp4
Format











: MPEG-4
Format profile







: Base Media
Codec ID










: isom
File size










: 90.4 MiB
Duration










: 4mn 33s
Overall bit rate






: 2 767 Kbps
Writing application





: Lavf55.33.100

Video
ID













: 1
Format











: AVC
Format/Info









: Advanced Video Codec
Format profile







: [email protected]/* */
Format settings, CABAC



: Yes
Format settings, ReFrames


: 3 frames
Codec ID










: avc1
Codec ID/Info








: Advanced Video Coding
Duration










: 4mn 33s
Duration_FirstFrame





: -33ms
Bit rate










: 2 506 Kbps
Width












: 1 920 pixels
Height











: 1 080 pixels
Display aspect ratio




: 16:9
Frame rate mode







: Variable
Frame rate









: 29.970 fps
Minimum frame rate





: 29.970 fps
Maximum frame rate





: 29.990 fps
Color space









: YUV
Chroma subsampling





: 4:2:0
Bit depth










: 8 bits
Scan type










: Progressive
Bits/(Pixel*Frame)





: 0.040
Stream size









: 81.8 MiB (91%)

Audio
ID













: 2
Format











: AAC
Format/Info









: Advanced Audio Codec
Format profile







: LC
Codec ID










: 40
Duration










: 4mn 33s
Bit rate mode








: Constant
Bit rate










: 254 Kbps
Channel(s)









: 2 channels
Channel positions






: Front: L R
Sampling rate








: 44.1 KHz
Compression mode






: Lossy
Stream size









: 8.28 MiB (9%)