Maroon 5 – Animals (2014.Pop)


Size : 107.64 MiB (112867742 Bytes)

MAROON 5 - ANIMALS



MPEG4 MUSIC VID

http://gifyu.com/images/Maroon5.png


General
Complete name













: Maroon 5 - Animals
Format
















: MPEG-4
Format profile












: Base Media
Codec ID















: isom
File size















: 108 MiB
Duration















: 4mn 40s
Overall bit rate











: 3 224 Kbps
Movie name














: Animals
Movie name/More












: Maroon 5
Album

















: V
Performer















: Maroon 5
Genre

















: Pop Rock
ContentType














: Music Video
Recorded date













: 2014
Copyright















: Maroon 5
Cover

















: Yes
Rating
















: ***
Make

















: MeRaDil
oday

















: 29-09-2014 USA
artist url














: http://www.maroon5.com
label

















: Interscope
release
















: USA - september 29 - 2014
Part_ID
















: Animals

Video
ID


















: 1
Format
















: AVC
Format/Info














: Advanced Video Codec
Format profile












: [email protected]/* */
Format settings, CABAC








: Yes
Format settings, ReFrames







: 2 frames
Codec ID















: avc1
Codec ID/Info













: Advanced Video Coding
Duration















: 4mn 40s
Bit rate















: 2 961 Kbps
Width

















: 1 920 pixels
Height
















: 1 080 pixels
Display aspect ratio









: 16:9
Frame rate mode












: Variable
Frame rate














: 23.976 fps
Minimum frame rate










: 23.974 fps
Maximum frame rate










: 23.981 fps
Color space














: YUV
Chroma subsampling










: 4:2:0
Bit depth















: 8 bits
Scan type















: Progressive
Bits/(Pixel*Frame)










: 0.060
Stream size














: 98.8 MiB (92%)

Audio
ID


















: 2
Format
















: AAC
Format/Info














: Advanced Audio Codec
Format profile












: LC
Codec ID















: 40
Duration















: 4mn 40s
Bit rate mode













: Constant
Bit rate















: 256 Kbps
Channel(s)














: 2 channels
Channel positions











: Front: L R
Sampling rate













: 44.1 KHz
Compression mode











: Lossy
Stream size














: 8.55 MiB (8%)
https://thepiratebay.se/user/MeRaDil

:)