Maroon 5 – Sugar (2015.Funk Pop)


Size : 146.5 MiB (153615870 Bytes)

MAROON 5 - SUGAR

http://gifyu.com/images/sugar.png
http://gifyu.com/images/Maroon5d0880.png

General
Maroon 5 - Sugar
Format










: MPEG-4
Format profile






: Base Media
Codec ID









: isom
File size








: 146 MiB
Duration









: 5mn 1s
Overall bit rate





: 4 077 Kbps
MusicVid name






: Sugar
Album










: V
Performer








: Maroon 5
Genre










: Disco/Funk Pop
ContentType







: Music Video
Recorded date






: 2015
Copyright








: Maroon 5
Cover










: Yes
Rating










: ***
Make











: MeRaDil
Artist url








: http://www.maroon5.com
Release









: USA . january 14 . 2015
Part_ID









: Sugar

Video
ID












: 1
Format










: AVC
Format/Info







: Advanced Video Codec
Format profile






: [email protected]/* */
Format settings, CABAC


: Yes
Format settings, ReFrames
: 3 frames
Codec ID









: avc1
Codec ID/Info






: Advanced Video Coding
Duration









: 5mn 1s
Bit rate









: 3 815 Kbps
Width










: 1 920 pixels
Height










: 1 080 pixels
Display aspect ratio



: 16:9
Frame rate mode





: Variable
Frame rate








: 23.976 fps
Minimum frame rate




: 23.974 fps
Maximum frame rate




: 23.981 fps
Color space







: YUV
Chroma subsampling




: 4:2:0
Bit depth








: 8 bits
Scan type








: Progressive
Bits/(Pixel*Frame)




: 0.077
Stream size







: 137 MiB (94%)

Audio
ID












: 2
Format










: AAC
Format/Info







: Advanced Audio Codec
Format profile






: LC
Codec ID









: 40
Duration









: 5mn 1s
Bit rate mode






: Constant
Bit rate









: 256 Kbps
Channel(s)








: 2 channels
Channel positions




: Front: L R
Sampling rate






: 44.1 KHz
Compression mode





: Lossy
Stream size







: 9.20 MiB (6%)
https://thepiratebay.se/user/MeRaDil

USA jan.2015 * Maroon 5 * V * Promo * Disco * Funk Pop

:)