Marvels Agents of S.H.I.E.L.D S04E07 720p WEB-DL HEVC 2CH x265

Magnet Download Torrent Download

Size : 335.87 MiB (352184673 Bytes)

Source:Marvels Agents of S.H.I.E.L.D S04E07 1080p WEB-DL DD5.1 H264-RARBG(1.69 GB)


Complete name:Marvels.Agents.of.S.H.I.E.L.D.S04E07.720p.WEB-DL.HEVC.2CH.x265.mkv
Format
















: Matroska
Format version












: Version 4 / Version 2
File size















: 336 MiB
Duration















: 44 min
Overall bit rate











: 1 065 kb/s
Writing application










: Lavf57.25.100

Video

ID


















: 1
Format
















: V_MPEGH/ISO/HEVC
Duration















: 44 min
Bit rate















: 852 kb/s
Width

















: 1 274 pixels
Height
















: 720 pixels
Display aspect ratio









: 16:9
Frame rate mode












: Constant
Frame rate














: 25.000 FPS
Color space














: YUV
Chroma subsampling










: 4:2:0
Bit depth















: 8 bits
Bits/(Pixel*Frame)










: 0.037
Stream size














: 269 MiB (80%)
Default
















: Yes
Forced
















: No
DURATION















: 00:44:05.611000000

Audio

ID


















: 2
Format
















: AC-3
Format/Info














: Audio Coding 3
Mode extension












: CM (complete main)
Format settings, Endianness






: Big
Codec ID















: A_AC3
Duration















: 44 min
Bit rate mode













: Constant
Bit rate















: 192 kb/s
Channel(s)














: 2 channels
Channel positions











: Front: L R
Sampling rate













: 48.0 kHz
Frame rate














: 31.250 FPS (1536 spf)
Bit depth















: 32 bits
Compression mode











: Lossy
Stream size














: 60.6 MiB (18%)
Writing library












: Lavc57.24.102 ac3
Default
















: Yes
Forced
















: No
DURATION















: 00:44:05.663000000

Text

ID


















: 3
Codec ID















: S_TEXT/ASS
Default
















: Yes