Marvel’s Luke Cage S01E05 720p WEBRip x264-TheRival


Size : 591.79 MiB (620541362 Bytes)

Video
ID


















: 1
Format
















: AVC
Format/Info














: Advanced Video Codec
Format profile












: [email protected]/* */
Format settings, CABAC








: Yes
Format settings, ReFrames







: 4 frames
Codec ID















: avc1
Codec ID/Info













: Advanced Video Coding
Duration















: 50 min 7 s
Bit rate















: 1 517 kb/s
Width

















: 1 280 pixels
Height
















: 720 pixels
Display aspect ratio









: 16:9
Frame rate mode












: Constant
Frame rate














: 23.976 (24000/1001) FPS
Color space














: YUV
Chroma subsampling










: 4:2:0
Bit depth















: 8 bits
Scan type















: Progressive
Bits/(Pixel*Frame)










: 0.069
Stream size














: 544 MiB (92%)
Writing library












: x264 core 146


Audio
ID


















: 2
Format
















: AAC
Format/Info














: Advanced Audio Codec
Format profile












: LC
Codec ID















: 40
Duration















: 50 min 6 s
Bit rate mode













: Constant
Bit rate















: 128 kb/s
Channel(s)














: 2 channels
Channel positions











: Front: L R
Sampling rate













: 48.0 kHz
Frame rate














: 46.875 FPS (1024 spf)
Compression mode











: Lossy
Stream size














: 45.9 MiB (8%)
Default
















: Yes
Alternate group












: 1