Mary Shelleys Frankenhole S01E01-E05 (PSP, iPod, Zune)


Size : 274.32 MiB (287646823 Bytes)

Mary Shelleys Frankenhole S01 E01-05

Encoded for PSP, iPod, and Zune.

Enjoy and please help me seed, so I can release more stuff faster! (^_^)

Everyone should try this show, at least that\'s what I think. In the first episode they make fun of Micheal Jackson and how weird he was and in the fourth episode, Adolf Hitler travels back in time o Mary Shelly came make it so he can tolerate the Jews, but instead he ends up love the Jewish leg of Frankenstien and all goes wrong.

This show comes on AdultSwim, I think that it\'s kinda funny, I like to watch it late at night when nothing good is on.

Show Nfo - In this stop-motion series, we follow Victor Frankenstein, the mad genius who mastered immortality and now has also created an infinite number of portals (or Frankenholes) connecting his small, Eastern European village (that is teaming with monsters and supernatural forces) to every time period from the past and the future.

Video Specs:
Format












: MPEG-4
Codec ID











: M4V
File size











: 56.8 MiB
Duration











: 12mn 33s
Overall bit rate







: 633 Kbps
Movie name










: E01
Encoded date









: 2010
Writing application






: Lavf52.33.0

Video
ID














: 1
Format












: AVC
Format/Info










: Advanced Video Codec
Format profile








: [email protected]/* */
Format settings, CABAC




: No
Format settings, ReFrames



: 1 frame
Codec ID











: avc1
Codec ID/Info









: Advanced Video Coding
Duration











: 12mn 33s
Bit rate mode









: Variable
Bit rate











: 500 Kbps
Width













: 320 pixels
Height












: 240 pixels
Display aspect ratio





: 4:3
Frame rate mode








: Constant
Frame rate










: 29.970 fps
Color space










: YUV
Chroma subsampling






: 4:2:0
Bit depth











: 8 bits
Scan type











: Progressive
Bits/(Pixel*Frame)






: 0.217
Stream size










: 44.9 MiB (79%)

Audio
ID














: 2
Format












: AAC
Format/Info










: Advanced Audio Codec
Format version








: Version 4
Format profile








: LC
Format settings, SBR





: No
Codec ID











: 40
Duration











: 12mn 33s
Bit rate mode









: Variable
Bit rate











: 128 Kbps
Channel(s)










: 2 channels
Channel positions







: Front: L R
Sampling rate









: 48.0 KHz
Stream size










: 11.5 MiB (20%)