Masaan (2015) Hindi 720p DVDRip x264 AAC [ TaRa ].mkv


Size : 1.14 GiB (1223396512 Bytes)

========================================================================
General
Masaan (2015) Hindi 720p DVDRip x264 AAC [ TaRa ].mkv
Format










: Matroska
Format version






: Version 4 / Version 2
File size








: 1.14 GiB
Duration









: 1h 48mn
Overall bit rate mode


: Variable
Overall bit rate





: 1 500 Kbps
========================================================================
Video
ID












: 1
Format










: AVC
Format/Info







: Advanced Video Codec
Format profile






: [email protected]/* */
Format settings, CABAC


: Yes
Format settings, ReFrames
: 3 frames
Codec ID









: V_MPEG4/ISO/AVC
Duration









: 1h 48mn
Bit rate mode






: Variable
Bit rate









: 1 402 Kbps
Maximum bit rate





: 40.0 Mbps
Width










: 1 280 pixels
Height










: 696 pixels
Display aspect ratio



: 1.85:1
Frame rate mode





: Constant
Frame rate








: 23.976 (24000/1001) fps
Color space







: YUV
Chroma subsampling




: 4:2:0
Bit depth








: 8 bits
Scan type








: Progressive
Bits/(Pixel*Frame)




: 0.066
Stream size







: 1.06 GiB (93%)
Title










: .....::::: TaRa :::::.....
Language









: Hindi
Default









: Yes
Forced










: No
==========================================================================
Audio
ID












: 2
Format










: AAC
Format/Info







: Advanced Audio Codec
Format profile






: LC
Codec ID









: A_AAC
Duration









: 1h 48mn
Bit rate









: 96.0 Kbps
Channel(s)








: 2 channels
Channel positions




: Front: L R
Sampling rate






: 44.1 KHz
Frame rate








: 43.066 fps (1024 spf)
Compression mode





: Lossy
Delay relative to video

: 10ms
Stream size







: 74.5 MiB (6%)
Title










: .....::::: TaRa :::::.....
Language









: Hindi
Default









: Yes
Forced










: No
============================================================================== http://imgur.com/L8Jqc9u