Meek Mill ft.Nicki Minaj+Chris Brown – All Eyes On You (2015)


Size : 100.07 MiB (104926127 Bytes)

MEEK MILL ft.NICKI MINAJ & CHRIS BROWN - ALL EYES ON YOU

http://gifyu.com/images/MeekMill.png
http://gifyu.com/images/MeekMill1.png


General
Meek Mill ft. Nicki Minaj & Chris Brown - All Eyes On You
Format
















: MPEG-4
Format profile












: Base Media
Codec ID















: isom
File size















: 100 MiB
Duration















: 3mn 54s
Overall bit rate











: 3 580 Kbps
MusicVideo name












: All Eyes On You
Album

















: Dreams Worth More Than Money
Performer















: Meek Mill ft. Nicki Minaj & Chris Brown
Genre

















: HipHop
ContentType














: Music Video
Recorded date













: 2015
Cover

















: Yes
Rating
















: ***
Make

















: MeRaDil
Release
















: USA - july 27 - 2015

Video
ID


















: 1
Format
















: AVC
Format/Info














: Advanced Video Codec
Format profile












: [email protected]/* */
Format settings, CABAC








: Yes
Format settings, ReFrames







: 2 frames
Codec ID















: avc1
Codec ID/Info













: Advanced Video Coding
Duration















: 3mn 54s
Bit rate















: 3 319 Kbps
Width

















: 1 920 pixels
Height
















: 1 080 pixels
Display aspect ratio









: 16:9
Frame rate mode












: Variable
Frame rate














: 23.879 fps
Minimum frame rate










: 23.873 fps
Maximum frame rate










: 23.879 fps
Color space














: YUV
Chroma subsampling










: 4:2:0
Bit depth















: 8 bits
Scan type















: Progressive
Bits/(Pixel*Frame)










: 0.067
Stream size














: 92.7 MiB (93%)

Audio
ID


















: 2
Format
















: AAC
Format/Info














: Advanced Audio Codec
Format profile












: LC
Codec ID















: 40
Duration















: 3mn 54s
Bit rate mode













: Constant
Bit rate















: 256 Kbps
Channel(s)














: 2 channels
Channel positions











: Front: L R
Sampling rate













: 44.1 KHz
Compression mode











: Lossy
Stream size














: 7.15 MiB (7%)
https://thepiratebay.se/user/MeRaDil

Meek Mill * Nicki Minaj * Chris Brown * HipHop * Promo