Metric – Live at Metropolis (2008) DVDRip AVI.avi


Size : 1.17 GiB (1256937472 Bytes)

Recorded March 1, 2006 at Metropolis Theatre, Montreal.

Art Direction, Design – Jeremy R. Jansen
Design [Set Design] – Jeremy R. Jansen, Sarah B. Bolen
Director Of Photography – Eugene O'Connor (tracks: 1 to 13)
Executive-Producer – Chris Taylor (40) (tracks: 1 to 13)
Film Editor, Film Technician [Visual Effects] – Deco Dawson (tracks: 1 to 13)
Film Producer – Jimmy Shaw* (tracks: 1 to 13)
Mixed By [Stereo & Surround Mixes By] – Denis Normandeau, François Lamoureux (tracks: 1 to 13)
Photography By – Jeremy R. Jansen

Format/Info : Audio Video Interleave
File size : 1.17 GiB
Duration : 1h 8mn
Overall bit rate : 2 462 Kbps
Writing application : VirtualDubModRus 1.5.10.2 (build 2542/release)
Writing library : VirtualDubMod build 2542/release

Video
ID : 0
Format : MPEG-4 Visual
Format profile : Advanced [email protected]/* */
Format settings, BVOP : 3
Format settings, QPel : Yes
Format settings, GMC : No warppoints
Format settings, Matrix : Custom
Codec ID : XVID
Codec ID/Hint : XviD
Duration : 1h 8mn
Bit rate : 2 005 Kbps
Width : 720 pixels
Height : 400 pixels
Display aspect ratio : 16:9
Frame rate : 23.976 fps
Color space : YUV
Chroma subsampling : 4:2:0
Bit depth : 8 bits
Scan type : Progressive
Compression mode : Lossy
Bits/(Pixel*Frame) : 0.290
Stream size : 976 MiB (81%)
Writing library : XviD 1.2.1 (UTC 2008-12-04)

Audio
ID : 1
Format : AC-3
Format/Info : Audio Coding 3
Mode extension : CM (complete main)
Format settings, Endianness : Big
Codec ID : 2000
Duration : 1h 8mn
Bit rate mode : Constant
Bit rate : 448 Kbps
Channel(s) : 6 channels
Channel positions : Front: L C R, Side: L R, LFE
Sampling rate : 48.0 KHz
Bit depth : 16 bits
Compression mode : Lossy
Stream size : 218 MiB (18%)
Alignment : Split accross interleaves
Interleave, duration : 42 ms (1.00 video frame)
Interleave, preload duration : 500 ms