Mi.primera.boda.2011 720p


Size : 2.34 GiB (2512008053 Bytes)

General Information
AÑO: 2011
DURACIÓN: 102 min.
PAÍS: Argentina
DIRECTOR: Ariel Winograd
GUIÓN: Patricio Vega
MÚSICA: Lucio Godoy, Darío Eskenazi
FOTOGRAFÍA: Félix Monti
REPARTO: Natalia Oreiro, Daniel Hendler, Imanol Arias, Martín Piroyansky, María Alche, Sebastián De Caro, José Soriano, Gino Renni, Daniel Rabinovich, Gabriela Acher, Marcos Mundstock, Celeste García Satur, Clemente Cancela, Alan Sabbag
PRODUCTORA: Tresplanos Cine / TELEFE Cine
GÉNERO: Comedia. Romance
Format : Matroska
File size : 2.34 GiB
Duration : 1h 42mn
Overall bit rate : 3 252 Kbps
Encoded date : UTC 2012-01-20 14:38:52
Writing application : mkvmerge v5.2.1 ('A Far Off Place') built on Jan 2 2012 23:21:10
Writing library : libebml v1.2.3 + libmatroska v1.3.0

Video #1 Information
ID : 1
Format : MPEG Video
Format version : Version 2
Format profile : [email protected]/* */
Format settings, Matrix : Default
Codec ID : V_MPEG2
Codec ID/Info : MPEG 1 or 2 Video
Duration : 1h 42mn
Bit rate mode : Constant
Bit rate : 2 995 Kbps
Nominal bit rate : 100.0 Kbps
Width : 720 pixels
Height : 480 pixels
Display aspect ratio : 4:3
Frame rate : 29.970 fps
Standard : NTSC
Colorimetry : 4:2:0
Scan type : Progressive
Bits/(Pixel*Frame) : 0.289
Stream size : 2.15 GiB (92%)
Writing library : TMPGEnc 2.524.63.181

Audio #2 Information
ID : 2
Format : AC-3
Format/Info : Audio Coding 3
Codec ID : A_AC3
Duration : 1h 42mn
Bit rate mode : Constant
Bit rate : 192 Kbps
Channel(s) : 2 channels
Channel positions : L R
Sampling rate : 48.0 KHz
Video delay : 433ms
Stream size : 141 MiB (6%)
Title : Español
Language : Spanish
Text #3
ID : 3
Format : UTF-8
Codec ID : S_TEXT/UTF8
Codec ID/Info : UTF-8 Plain Text
Title : Ingles

Plot
Wedding day.