Michael Jackson – 100% ( M6 Music HD 2014, Pop, HDTV 1080i )


Size : 16.97 GiB (18222292356 Bytes)

Формат: HDTVRip, TS, H.264, AC3
Песня: Love never felt so good
Жанр: Pop
Контейнер: TS
Продолжительность: 04:04:00
Год выпуска: 2014
Видео: 1920x1080 (16:9), MPEG4 Video H264/AVC, [email protected]/* */, 25.000 fps, ~ 9.182 Кбит/сек, 0.177 bit.pixel
Аудио: 48.0 KHz, Dolby AC3, 2 ch, stereo, 256 kbps, 16 bits





1 - M. Jackson/J. Timberlake - Love never felt so good 2014
2 - Michael Jackson - A place with no name 2014
3 - Michael Jackson - Billie jean 1982
4 - Michael Jackson - Beat it 1983
5 - Michael Jackson - Dirty diana 1988
6 - Michael Jackson - Liberian girl 1989
7 - Michael Jackson - Man in the mirror 1988
8 - The Jacksons - Can You Feel It
9 - Michael Jackson - Stranger in moscow 1996
10 - Michael Jackson - Scream 1995
11 - Michael Jackson - Behind the mask 2011
12 - Michael Jackson - Cry 2001
13 - Michael Jackson - Have you seen my childhood 1995
14 - Michael Jackson - One more chance 2003
15 - Michael Jackson - Thriller 1983
16 - Michael Jackson - Smooth criminal 1988
17 - Jackson Five - I want you back 1969
18 - Michael Jackson - This is it 2009
19 - Michael Jackson - They don't care about us 1996
20 - Michael Jackson - Remember the time 1992
21 - Michael Jackson - Leave me alone 1989
22 - Michael Jackson - Earth song 1995
23 - Michael Jackson - Jam 1992
24 - Michael Jackson - Bad 1987
25 - Michael Jackson - Don't Stop 'Til You Get Enough 1979
26 - Michael Jackson - Black or white 1991
27 - Michael Jackson - You are not alone 1995
28 - Michael Jackson - Who is it 1992
29 - Michael Jackson - Another part of me 1988
30 - Michael Jackson - In the closet 1992
31 - Michael Jackson - She's out of my life 1980
32 - Usa For Africa - We are the world 1985
33 - Michael Jackson - Give in to me 1993
34 - Michael Jackson - Gone too soon 1993
35 - Michael Jackson/Akon - Hold my hand 2010
36 - Michael Jackson - Rock with you 1980
37 - Michael Jackson - You rock my world 2001
38 - Michael Jackson - Heal the world 1992
39 - Michael Jackson - The way you make me feel 1987
40 - The Jacksons - 2300 Jackson street 1989
41 - Michael Jackson - History 1997
42 - Michael Jackson - Blood on the dance floor 1997
43 - Michael Jackson - Will you be there 1993
44 - The Jacksons - Nothin' ( That compares 2u ) 1989
45 - Michael Jackson - Ghosts 1997
46 - 3 T Feat. Michael Jackson - Why? 1996
47 - Eddy Murphy & Michael Jackson - Whatzupwitu 1993




Общее
Идентификатор : 1 (0x1)
Полное имя : Michael Jackson -100% ( M6 Music HD).ts
Формат : MPEG-TS
Размер файла : 17,0 Гбайт
Продолжительность : 4 ч. 4 м.
Общий поток : 9931 Кбит/сек

Видео
Идентификатор : 162 (0xA2)
Идентификатор меню : 1 (0x1)
Формат : AVC
Формат/Информация : Advanced Video Codec
Профиль формата : [email protected]/* */
Параметр CABAC формата : Да
Параметр ReFrames формата : 4 кадра
Идентификатор кодека : 27
Продолжительность : 4 ч. 4 м.
Битрейт : 9182 Кбит/сек
Ширина : 1920 пикс.
Высота : 1080 пикс.
Соотношение сторон : 16:9
Частота кадров : 25,000 кадр/сек
Цветовое пространство : YUV
Подвыборка цветности : 4:2:0
Битовая глубина : 8 бит
Тип развёртки : MBAFF
Бит/(Пиксели*Кадры) : 0.177
Размер потока : 15,7 Гбайт (92%)
Основные цвета : BT.709-5, BT.1361, IEC 61966-2-4, SMPTE RP177
Характеристики трансфера : BT.709-5, BT.1361
Коэффициенты матрицы : BT.709-5, BT.1361, IEC 61966-2-4 709, SMPTE RP177

Аудио
Идентификатор : 90 (0x5A)
Идентификатор меню : 1 (0x1)
Формат : AC-3
Формат/Информация : Audio Coding 3
Профиль формата : Dolby Digital
Расширение режима : CM (complete main)
Идентификатор кодека : 6
Продолжительность : 4 ч. 4 м.
Вид битрейта : Постоянный
Битрейт : 256 Кбит/сек
Каналы : 2 канала
Расположение каналов : Front: L R
Частота : 48,0 КГц
Битовая глубина : 16 бит
Метод сжатия : С потерями
Размер потока : 448 Мбайт (3%)
Язык : French