Micro.Monsters.3D.Predator.2013.HOU.1080p.BRRip.x264.Hun.Eng


Size : 2.35 GiB (2528190916 Bytes)

Micro.Monsters.3D.Predator.2013.HOU.1080p.BRRip.x264.Hun.Eng
http://www.imdb.com/title/tt2630716/

General
Unique ID















: 213162567044195359415115881187288969161 (0xA05D9DF9904158E6BA5498FC3CFE6FC9)
Complete name













: F:Micro.Monsters.3D.Predator.2013.HOU.1080p.BRRip.x264.Hun.EngMicro Monsters 3D Predator (2013) HOU 1080p.mkv
Format
















: Matroska
Format version












: Version 4 / Version 2
File size















: 2.35 GiB
Duration















: 22mn 50s
Overall bit rate











: 14.8 Mbps
Encoded date













: UTC 2014-11-25 10:23:41
Writing application










: mkvmerge v7.2.0 ('On Every Street') 64bit built on Sep 13 2014 15:52:10
Writing library












: libebml v1.3.0 + libmatroska v1.4.1
DURATION















: 00:22:50.176000000
NUMBER_OF_FRAMES











: 42818
NUMBER_OF_BYTES












: 109614080
_STATISTICS_WRITING_APP








: mkvmerge v7.2.0 ('On Every Street') 64bit built on Sep 13 2014 15:52:10
_STATISTICS_WRITING_DATE_UTC





: 2014-11-25 10:23:41
_STATISTICS_TAGS











: BPS DURATION NUMBER_OF_FRAMES NUMBER_OF_BYTES

Video
ID


















: 1
Format
















: AVC
Format/Info














: Advanced Video Codec
Format profile












: [email protected]/* */
Format settings, CABAC








: Yes
Format settings, ReFrames







: 4 frames
Codec ID















: V_MPEG4/ISO/AVC
Duration















: 22mn 50s
Bit rate















: 13.6 Mbps
Width

















: 1 920 pixels
Height
















: 1 080 pixels
Display aspect ratio









: 16:9
Frame rate mode












: Constant
Frame rate














: 23.976 fps
Color space














: YUV
Chroma subsampling










: 4:2:0
Bit depth















: 8 bits
Scan type















: Progressive
Bits/(Pixel*Frame)










: 0.274
Stream size














: 2.17 GiB (92%)
Title

















: Micro Monsters 3D Predator (2013) HOU 1080p
Writing library












: x264 core 129 r2245 bc13772
Encoding settings











: cabac=1 / ref=4 / deblock=1:-3:-3 / analyse=0x3:0x113 / me=umh / subme=10 / psy=1 / psy_rd=1.00:0.15 / mixed_ref=1 / me_range=32 / chroma_me=1 / trellis=2 / 8x8dct=1 / cqm=0 / deadzone=21,11 / fast_pskip=1 / chroma_qp_offset=-3 / threads=12 / lookahead_threads=2 / sliced_threads=0 / nr=0 / decimate=1 / interlaced=0 / bluray_compat=0 / constrained_intra=0 / bframes=10 / b_pyramid=2 / b_adapt=2 / b_bias=0 / direct=3 / weightb=1 / open_gop=0 / weightp=2 / keyint=250 / keyint_min=23 / scenecut=40 / intra_refresh=0 / rc_lookahead=60 / rc=crf / mbtree=1 / crf=17.0 / qcomp=0.70 / qpmin=0 / qpmax=69 / qpstep=4 / vbv_maxrate=40000 / vbv_bufsize=30000 / crf_max=0.0 / nal_hrd=none / frame-packing=4 / ip_ratio=1.40 / aq=1:0.70
Default
















: Yes
Forced
















: No
DURATION















: 00:22:50.161000000
NUMBER_OF_FRAMES











: 32851
NUMBER_OF_BYTES












: 2385301981
_STATISTICS_WRITING_APP








: mkvmerge v7.2.0 ('On Every Street') 64bit built on Sep 13 2014 15:52:10
_STATISTICS_WRITING_DATE_UTC





: 2014-11-25 10:23:41
_STATISTICS_TAGS











: BPS DURATION NUMBER_OF_FRAMES NUMBER_OF_BYTES

Audio #1
ID


















: 2
Format
















: AC-3
Format/Info














: Audio Coding 3
Mode extension












: CM (complete main)
Format settings, Endianness






: Big
Codec ID















: A_AC3
Duration















: 22mn 50s
Bit rate mode













: Constant
Bit rate















: 192 Kbps
Channel(s)














: 2 channels
Channel positions











: Front: L R
Sampling rate













: 48.0 KHz
Bit depth















: 16 bits
Compression mode











: Lossy
Stream size














: 31.4 MiB (1%)
Title

















: 2.0
Language















: Hungarian
Default
















: Yes
Forced
















: No

Audio #2
ID


















: 3
Format
















: AC-3
Format/Info














: Audio Coding 3
Mode extension












: CM (complete main)
Format settings, Endianness






: Big
Codec ID















: A_AC3
Duration















: 22mn 50s
Bit rate mode













: Constant
Bit rate















: 640 Kbps
Channel(s)














: 6 channels
Channel positions











: Front: L C R, Side: L R, LFE
Sampling rate













: 48.0 KHz
Bit depth















: 16 bits
Compression mode











: Lossy
Stream size














: 105 MiB (4%)
Title

















: 5.1
Language















: English
Default
















: No
Forced
















: No
http://www.port.hu/micro_monsters_3d/pls/fi/films.film_page?i_film_id=156743&i_where=1&i_city_id=3372&i_county_id=-1&i_episode_id=296380